новый адрес
Ссылка на приватное зеркало всего за 1$. Внимание количество ограничено!!!

iTunes

1+1

iTunes

мы

WEB-DL

1

iTunes

Чернобыль

iTunes

Ральф против интернета

Лицензия

ПШазам

Лицензия

Оно 2

Лицензия

30
pack

Вам бонус

ВАЖНО

!!Акция!!

Alien_RageХит недели

RePack

Resident Evil 21

ИГРА 18+

pack

RePack

jed

!!Акция!!

Alien_Rage

RePack

fifa19

RePack

Assassins Creed: Odyssey

RePack

NEED FOR SPEED™ PAYBACK

3 сезон

9 сезон

Бесстыжие 9 сезон

Все сериалы

все сериалы на PB.wtf

RePack

FAR CRY 5
Ребята, катастрофически не хватает 1900р. для оплаты серверов за Октябрь (всвязи с блокировками трафик упал в 3 раза), 1-2р., выручайте.
  

Пиф-паф ой-ой-ой / Chitty Chitty Bang Bang (Кен Хьюз) [1968 г., мюзикл, фэнтези, комедия, семейный, HDRip, DUB] piratbit.pw

Пиф-паф ой-ой-ой через торрент piratbit.pw

Размер: 2.18 GB | Добавлен: 7 лет 5 мес. назад | Торрент скачан:27 раз
Скачать  

14-06-2012 17:20 Пиф-паф ой-ой-ой Скачать торрент  

Пиф-паф ой-ой-ой / Chitty Chitty Bang Bang

Год выпуска: 1968
Страна: Великобритания
Жанр: мюзикл, фэнтези, комедия, семейный
Продолжительность: 02:25:30
Перевод: Дубляж
Субтитры: Отсутствуют

Режиссер: Кен Хьюз
Продюссер: Альберт Р. Брокколи, Стэнли Сопел

Премьера в мире: 16 декабря 1968

IMDB 6.60 (13 548)


В ролях: Дик Ван Дайк, Сэлли Энн Хоус, Лайонел Джеффрис, Герт Фрёбе, Анна Куэйл, Бенни Хилл, Джеймс Робертсон Джастис, Роберт Хелпманн, Хезер Рипли, Адриан Холл, Владимир Антоник, Ольга Голованова, Алексей Борзунов, Александр Хотченков, Никита Прозоровский

Описание: Дик Ван Дайк исполняет роль чудаковатого изобретателя Карактакуса Поттса, создавшего экспериментальный автомобиль и назвавший его «Пиф — паф Ой — ой-ой». Этот автомобиль не только ездит, но еще и летает, и плавает, смотря что ему закажешь.
И едет он туда, куда захотят изобретатель, двое его детей и симпатичная подруга — в сказочный мир старинных замков и приключений.
Именно там наша компания и встречает то и дело множество неповторимых персонажей, среди которых барон Бомбурст из Вульгарии, его хохотушка — жена, добродушный городской кукольник и ужасный похититель детей.

Качество: HDRip
Формат: AVI
Видео кодек: XviD
Аудио кодек: AC3
Видео: 704x320 (2.20:1), 23.976 fps, XviD build 57 ~1755 kbps avg, 0.33 bit/pixel
Аудио#1: Русский: 48 kHz, AC3 Dolby Digital, 3/2 (L,C,R,l,r) + LFE ch, ~384 kbps



Общее
Полное имя : F:\Закачки\Pif.Paf.oj.oj.oj.1968.HDRip.avi
Формат : AVI
Формат/Информация : Audio Video Interleave
Профиль формата : OpenDML
Размер файла : 2,18 Гбайт
Продолжительность : 2 ч. 25 м.
Общий поток : 2146 Кбит/сек
Название фильма : Пиф-паф ой-ой-ой / Chitty Chitty Bang Bang (1968) BDRip
Режиссёр : xxL
Программа кодирования : VirtualDubMod 1.5.10.2 (build 2542/release)
Правообладатель : http://forum.hqclub.net/
Примечание : R.G. HQCLUB

Видео
Идентификатор : 0
Формат : MPEG-4 Visual
Профиль формата : Advanced Simple@L5
Параметр BVOP формата : 1
Параметр QPel формата : Нет
Параметр GMC формата : Без точки перехода
Параметр матрицы формата : Выборочная
Идентификатор кодека : XVID
Идентификатор кодека/Подсказка : XviD
Продолжительность : 2 ч. 25 м.
Битрейт : 1750 Кбит/сек
Ширина : 704 пикселя
Высота : 320 пикселей
Соотношение сторон : 2,2:1
Частота кадров : 23,976 кадра/сек
Цветовое пространство : YUV
Субдискретизация насыщенности : 4:2:0
Битовая глубина : 8 бит
Тип развёртки : Прогрессивная
Метод сжатия : С потерями
Бит/(Пиксели*Кадры) : 0.324
Размер потока : 1,78 Гбайт (82%)
Библиотека кодирования : XviD 57

Аудио
Идентификатор : 1
Формат : AC-3
Формат/Информация : Audio Coding 3
Расширение режима : CM (complete main)
Параметр Endianness формата : Big
Идентификатор кодека : 2000
Продолжительность : 2 ч. 25 м.
Вид битрейта : Постоянный
Битрейт : 384 Кбит/сек
Каналы : 6 каналов
Расположение каналов : Front: L C R, Side: L R, LFE
Частота : 48,0 КГц
Битовая глубина : 16 бит
Метод сжатия : С потерями
Размер потока : 400 Мбайт (18%)
Выравнивание : Разделение по промежуткам
Продолжительность промежутка : 42 мс. (1,00 видеокадр)
Время предзагрузки промежутка : 500 мс.

piratbit.pw



Скачать Пиф-паф ой-ой-ой через торрент http://i39.fastpic.ru/big/2012/0614/d9/9ac1df6c24564e50585e36179dddafd9.jpg Скачать фильм Пиф-паф ой-ой-ой через торрент бесплантно в хорошем качестве Описание: Дик Ван Дайк исполняет роль чудаковатого изобретателя Карактакуса Поттса, создавшего экспериментальный автомобиль и назвавший его ... 5 10 3
Info! Золотая раздача, скачанное не засчитывается.
Торрент: Зарегистрирован [2012-06-14 17:20] · скачан: 27 раз
Статус: √ проверено
Размер: 2.18 GB
Как cкачать? Как скачать Пиф-паф ой-ой-ой через торрент | qTorrent

28-11-2019 20:33  

Отключить всю рекламу на сайте

14-06-2012 17:31 Пиф-паф ой-ой-ой Скачать торрент  

Хороший фильм и качество.piratbit.pw



    Дорогой пользователь! Огромная просьба, поблагодарите релизера, оцените раздачу и оставьте свои комментарий, если Вы скачали Пиф-паф ой-ой-ой через торрент бесплатно! Внесите свою лепту в развитие PiratBit!
    Комментировать посты могут только пользователи прошедшие не сложную регистрацию
    Показать сообщения:    

    Пиф-паф ой-ой-ой через торрент
    Скачать бесплатно Пиф-паф ой-ой-ой
    Пиф-паф ой-ой-ой скачать торрент
    Пиф-паф ой-ой-ой смотреть онлайн
    Cкачать фильм Пиф-паф ой-ой-ой бесплатно
    Пиф-паф ой-ой-ой скачать торрент в хорошем качестве
    Пиф-паф ой-ой-ой смотреть онлайн бесплатно в хорошем качестве


    Вы не можете начинать темы
    Вы не можете отвечать на сообщения
    Вы не можете редактировать свои сообщения
    Вы не можете удалять свои сообщения
    Вы не можете голосовать в опросах
    Вы не можете прикреплять файлы к сообщениям
    Вы можете скачивать файлы