Marvel's Avengers Deluxe Edition (супер цена) 159р. Внимание количество ограничено!!!

2 сезон

iTunes

iTunes

1

iTunes

iTunes

iTunes

WEBRip

iTunes

30
pack

Новость дня

ВАЖНО

!!Акция!!

Alien_RageХит недели

RePack

Horizon Zero Dawn

ИГРА 18+

pack

RePack

jed

!!Акция!!

Alien_Rage

RePack

fifa19

RePack

Assassins Creed: Odyssey

RePack

NEED FOR SPEED™ PAYBACK

4 сезон

9 сезон

Бесстыжие 9 сезон

Все сериалы

все сериалы на PB.wtf

RePack

FAR CRY 5
  

Этот негодяй Сидоров (Валентин Горлов) [1983 г., комедия, семейный, SATRip, Оригинал] piratbit.pw

Этот негодяй Сидоров через торрент piratbit.pw

Размер: 691 MB | Добавлен: 8 лет 3 мес. назад | Торрент скачан:31 раз
Скачать  

01-06-2012 07:38 Этот негодяй Сидоров Скачать торрент  

Этот негодяй Сидоров

Год выпуска: 1983
Страна: СССР
Жанр: комедия, семейный
Продолжительность: 01:01:31
Перевод: Оригинал

Режиссер: Валентин Горлов
Сценарий: Александр Шуров

Премьера в мире: 8 апреля 1984



В ролях: Владислав Галкин, Татьяна Мартынова, Валерия Лиходей, Вячеслав Новиков, Сергей Арцибашев, Мария Барабанова, Марина Шиманская, Мирча Соцки-Войническу, Кирилл Головко-Серский, Нина Красильникова

Описание: Летний пионерский лагерь для детей разместился в городском этнографическом музее (юного зрителя ожидают комические погони, оживающие картины, говорящие звери и прочее веселое баловство). Прочитав характеристику на Алешу Сидорова все без исключения стали относиться к новичку как к лоботрясу и хулигану — согласно написанному. Однако талантливый парнишка, автор забавных буриме и карикатур, был последовательно и до конца снисходителен и вежлив. А когда в отряде появился настоящий хулиган Сидоров, Алеша решил взять над ним шефство — и стал ему настоящим другом.

Качество: SATRip
Формат: AVI
Видео кодек: DivX
Аудио кодек: AC3
Видео: 668x480 (1.39:1), 25 fps, DivX Codec 6.8.3 ~1367 kbps avg, 0.17 bit/pixel
Аудио#1: 48 kHz, Microsoft MPEG, 2 ch, ~192.00 kbps avg



Общее
Полное имя : F:\Закачки\Etot.Negodjaj.Sidorov.1983.SATRip.avi
Формат : AVI
Формат/Информация : Audio Video Interleave
Размер файла : 691 Мбайт
Продолжительность : 1 ч. 1 м.
Общий поток : 1570 Кбит/сек
Программа кодирования : VirtualDubMod 1.5.10.2 (build 2540/release)
Библиотека кодирования : VirtualDubMod build 2540/release

Видео
Идентификатор : 0
Формат : MPEG-4 Visual
Параметр BVOP формата : 1
Параметр QPel формата : Нет
Параметр GMC формата : Без точки перехода
Параметр матрицы формата : Default (H.263)
Режим смешивания : Сжатый битовый поток
Идентификатор кодека : DX50
Идентификатор кодека/Подсказка : DivX 5
Продолжительность : 1 ч. 1 м.
Битрейт : 1368 Кбит/сек
Ширина : 668 пикселей
Высота : 480 пикселей
Соотношение сторон : 1,392
Частота кадров : 25,000 кадров/сек
Цветовое пространство : YUV
Субдискретизация насыщенности : 4:2:0
Битовая глубина : 8 бит
Тип развёртки : Прогрессивная
Метод сжатия : С потерями
Бит/(Пиксели*Кадры) : 0.171
Размер потока : 602 Мбайт (87%)
Библиотека кодирования : DivX 6.8.3-6.8.4 (UTC 2008-06-07)

Аудио
Идентификатор : 1
Формат : MPEG Audio
Версия формата : Version 1
Профиль формата : Layer 2
Идентификатор кодека : 50
Продолжительность : 1 ч. 1 м.
Вид битрейта : Постоянный
Битрейт : 192 Кбит/сек
Каналы : 2 канала
Частота : 48,0 КГц
Метод сжатия : С потерями
Размер потока : 84,5 Мбайт (12%)
Выравнивание : Соединение по промежуткам
Продолжительность промежутка : 40 мс. (1,00 видеокадр)
Время предзагрузки промежутка : 504 мс.

piratbit.pw



Скачать Этот негодяй Сидоров через торрент http://pic.kartinco.top/images/2000/98lq28uywz.jpg Скачать фильм Этот негодяй Сидоров через торрент бесплантно в хорошем качестве Описание: Летний пионерский лагерь для детей разместился в городском этнографическом музее (юного зрителя ожидают комические погони, ... 10 10 3
Info! Золотая раздача, скачанное не засчитывается.
Торрент: Зарегистрирован [2012-06-01 07:38] · скачан: 31 раз
Статус: √ проверено
Размер: 691 MB
Как cкачать? Как скачать Этот негодяй Сидоров через торрент | qTorrent

28-11-2019 20:33  

Отключить всю рекламу на сайте

    Дорогой пользователь! Огромная просьба, поблагодарите релизера, оцените раздачу и оставьте свои комментарий, если Вы скачали Этот негодяй Сидоров через торрент бесплатно! Внесите свою лепту в развитие PiratBit!
    Комментировать посты могут только пользователи прошедшие не сложную регистрацию
    Показать сообщения:    

    Этот негодяй Сидоров через торрент
    Скачать бесплатно Этот негодяй Сидоров
    Этот негодяй Сидоров скачать торрент
    Этот негодяй Сидоров смотреть онлайн
    Cкачать фильм Этот негодяй Сидоров бесплатно
    Этот негодяй Сидоров скачать торрент в хорошем качестве
    Этот негодяй Сидоров смотреть онлайн бесплатно в хорошем качестве


    Вы не можете начинать темы
    Вы не можете отвечать на сообщения
    Вы не можете редактировать свои сообщения
    Вы не можете удалять свои сообщения
    Вы не можете голосовать в опросах
    Вы не можете прикреплять файлы к сообщениям
    Вы можете скачивать файлы