Marvel's Avengers Deluxe Edition (супер цена) 159р. Внимание количество ограничено!!!

2 сезон

iTunes

iTunes

1

iTunes

iTunes

iTunes

WEBRip

iTunes

30
pack

Новость дня

ВАЖНО

!!Акция!!

Alien_RageХит недели

RePack

Horizon Zero Dawn

ИГРА 18+

pack

RePack

jed

!!Акция!!

Alien_Rage

RePack

fifa19

RePack

Assassins Creed: Odyssey

RePack

NEED FOR SPEED™ PAYBACK

4 сезон

9 сезон

Бесстыжие 9 сезон

Все сериалы

все сериалы на PB.wtf

RePack

FAR CRY 5
  

Утомленные солнцем 2: Предстояние (Никита Михалков) [2010 г., драма, военный, BDRip (1080p), Оригинал (лицензия)] piratbit.pw

Утомленные солнцем 2: Предстояние через торрент piratbit.pw

Размер: 10.66 GB | Добавлен: 8 лет 4 мес. назад | Торрент скачан:18 раз
Скачать  

09-05-2012 17:40 Утомленные солнцем 2: Предстояние Скачать торрент  

Утомленные солнцем 2: Предстояние
Год выпуска: 2010
Страна: Россия
Жанр: драма, военный
Продолжительность: 03:00:41
Перевод: Оригинал(Лицензия)

Режиссер: Никита Михалков

В ролях: Виктория Толстоганова, Олег Меньшиков, Надежда Михалкова, Никита Михалков, Дмитрий Дюжев, Андрей Панин, Александр Пашутин, Валентин Гафт, Николай Козак, Иван Добронравов

Описание: Продолжение картины 1994 года. Героям первого фильма придется пройти сквозь пекло Великой Отечественной войны, чтобы найти друг друга и попытаться вновь стать счастливыми.
Бывший комдив Котов, несправедливо осуждённый в 30-е годы как враг народа, чудом выжил и был отправлен на войну обычным рядовым бойцом штрафного батальона. Воевал как все: в грязи, холоде и голоде, не заглядывая в будущее больше, чем на один день, да и тот надо было суметь прожить. Прожить и выжить в аду, которым была военная передовая. Его спасла вера. Вера в свою страну, вера в Бога и вера его дочери Нади в то, что отец жив…

Качество: BDRip (1080p)
Формат: MKV
Видео кодек: H.26x
Аудио кодек: AC3
Видео: AVC, 1920x816 (2.35:1), 24.000 fps, 8 000 Kbps (0.213 bit/pixel)
Аудио#1: AC-3, 48.0 KHz, 6 ch, 448 Kbps, CBR (Russian)

General
Unique ID : 203692044648621235323916336992341152505 (0x993DA92BA5312D1D9F865889181752F9)
Complete name : D:\Utomlennye_solncem_2_Predstojanie.2010.BDRip.1080p.mkv
Format : Matroska
File size : 10.7 GiB
Duration : 3h 0mn
Overall bit rate : 8 446 Kbps
Movie name : Утомленные солнцем 2: Предстояние 2010 BDRip - starankov
Encoded date : UTC 2012-05-09 09:07:41
Writing application : mkvmerge v5.1.0 ('And so it goes') built on Nov 28 2011 23:58:28
Writing library : libebml v1.2.3 + libmatroska v1.3.0

Video
ID : 1
Format : AVC
Format/Info : Advanced Video Codec
Format profile : High@L4.1
Format settings, CABAC : Yes
Format settings, ReFrames : 4 frames
Codec ID : V_MPEG4/ISO/AVC
Duration : 3h 0mn
Bit rate : 8 000 Kbps
Width : 1 920 pixels
Height : 816 pixels
Display aspect ratio : 2.35:1
Frame rate : 24.000 fps
Color space : YUV
Chroma subsampling : 4:2:0
Bit depth : 8 bits
Scan type : Progressive
Bits/(Pixel*Frame) : 0.213
Stream size : 9.88 GiB (93%)
Writing library : x264 core 120 r2164 da19765
Encoding settings : cabac=1 / ref=4 / deblock=1:-1:-1 / analyse=0x3:0x113 / me=umh / subme=9 / psy=1 / psy_rd=1.00:0.15 / mixed_ref=1 / me_range=24 / chroma_me=1 / trellis=2 / 8x8dct=1 / cqm=0 / deadzone=21,11 / fast_pskip=0 / chroma_qp_offset=-3 / threads=6 / sliced_threads=0 / nr=0 / decimate=1 / interlaced=0 / bluray_compat=0 / constrained_intra=0 / bframes=7 / b_pyramid=2 / b_adapt=2 / b_bias=0 / direct=3 / weightb=1 / open_gop=0 / weightp=2 / keyint=230 / keyint_min=23 / scenecut=40 / intra_refresh=0 / rc=2pass / mbtree=0 / bitrate=8000 / ratetol=1.0 / qcomp=0.60 / qpmin=0 / qpmax=69 / qpstep=4 / cplxblur=20.0 / qblur=0.5 / ip_ratio=1.40 / pb_ratio=1.30 / aq=1:1.00
Language : Russian

Audio
ID : 2
Format : AC-3
Format/Info : Audio Coding 3
Mode extension : CM (complete main)
Codec ID : A_AC3
Duration : 3h 0mn
Bit rate mode : Constant
Bit rate : 448 Kbps
Channel(s) : 6 channels
Channel positions : Front: L C R, Side: L R, LFE
Sampling rate : 48.0 KHz
Bit depth : 16 bits
Compression mode : Lossy
Stream size : 579 MiB (5%)
Title : Оригинал
Language : Russian

piratbit.pw



Скачать Утомленные солнцем 2: Предстояние через торрент http://rghost.ru/37996592/image.png Скачать фильм Утомленные солнцем 2: Предстояние через торрент бесплантно в хорошем качестве Описание: Продолжение картины 1994 года. Героям первого фильма придется пройти сквозь пекло Великой Отечественной войны, чтобы найти друг ... 10 10 3
Info! Золотая раздача, скачанное не засчитывается.
Торрент: Зарегистрирован [2012-05-09 17:40] · скачан: 18 раз
Статус: √ проверено
Размер: 10.66 GB
Как cкачать? Как скачать Утомленные солнцем 2: Предстояние через торрент | qTorrent

% Раздел Тема Автор DL S | L
Наши сериалы [ 13.74 GB ] Утомлённые солнцем - 2. Предстояние / Цитадель / Серии: 1-13 из 13 [2011 военный 2xDVD9] R5 Original Rus voovaz Скачать
1 | 0
Наши фильмы (Blu-ray, BD-Remux, HDDVD) [ 22.59 GB ] Утомлённые солнцем 2: Предстояние [2010 военный BD Remux 1080p] [] bober100 Скачать
1 | 0
Наши фильмы, до 2010 [ 2.06 GB ] Утомленные солнцем 2: Предстояние [2010 военный DVDRip] L_E_X Скачать
1 | 0
Фильмы 2010 [ 2.05 GB ] Утомленные солнцем 2: Предстояние [2010 военный BDRip] [ лицензия ] Kristian Larsson Скачать
1 | 0
Наши фильмы 2010-2011 [ 7.62 GB ] Утомленные солнцем 2: Предстояние [2010 военный DVD R5] L_E_X Скачать
1 | 0

28-11-2019 20:33  

Отключить всю рекламу на сайте

04-04-2015 18:40 Утомленные солнцем 2: Предстояние Скачать торрент  

раздающих нет... я так понимаю..... piratbit.pw



18-07-2015 17:20 Утомленные солнцем 2: Предстояние Скачать торрент  

Цитата:

Компания «n/a» отозвала из Министерства культуры РФ заявку на получение прокатного удостоверения для фильма «Номер 44», принимая на себя любые вытекающие коммерческие последствия этого решения.

В данном михалковском творении бреда больше, чем в том что сделали американцы, почему бы этот фильм не запретить на территории РФ?
А ответ прост - кто правит балом тот и заказывает музыку. Учитывая сколько в РФ продажных тварей среди чинушей (да и в простом народе их немало, иначе откуда бы у нас брались такие чиновники) данная ситуация не удивительна.piratbit.pw



    Дорогой пользователь! Огромная просьба, поблагодарите релизера, оцените раздачу и оставьте свои комментарий, если Вы скачали Утомленные солнцем 2: Предстояние через торрент бесплатно! Внесите свою лепту в развитие PiratBit!
    Комментировать посты могут только пользователи прошедшие не сложную регистрацию
    Показать сообщения:    

    Утомленные солнцем 2: Предстояние через торрент
    Скачать бесплатно Утомленные солнцем 2: Предстояние
    Утомленные солнцем 2: Предстояние скачать торрент
    Утомленные солнцем 2: Предстояние смотреть онлайн
    Cкачать фильм Утомленные солнцем 2: Предстояние бесплатно
    Утомленные солнцем 2: Предстояние скачать торрент в хорошем качестве
    Утомленные солнцем 2: Предстояние смотреть онлайн бесплатно в хорошем качестве


    Вы не можете начинать темы
    Вы не можете отвечать на сообщения
    Вы не можете редактировать свои сообщения
    Вы не можете удалять свои сообщения
    Вы не можете голосовать в опросах
    Вы не можете прикреплять файлы к сообщениям
    Вы можете скачивать файлы