Ссылка на приватное зеркало всего за 1$. Внимание количество ограничено!!!

iTunes

iTunes

iTunes

1

iTunes

iTunes

iTunes

WEBRip

iTunes

30
pack

$ от Little Big

ВАЖНО

!!Акция!!

Alien_RageХит недели

RePack

Resident Evil 21

ИГРА 18+

pack

RePack

jed

!!Акция!!

Alien_Rage

RePack

fifa19

RePack

Assassins Creed: Odyssey

RePack

NEED FOR SPEED™ PAYBACK

4 сезон

9 сезон

Бесстыжие 9 сезон

Все сериалы

все сериалы на PB.wtf

RePack

FAR CRY 5
  

Зайчик (Леонид Быков) [1964 г., комедия, DVDRip] piratbit.pw

Зайчик через торрент piratbit.pw

Размер: 1.42 GB | Добавлен: 8 лет 3 мес. назад | Торрент скачан:138 раз
Скачать  

08-04-2012 08:17 Зайчик Скачать торрент  

Зайчик

Год выпуска: 1964
Страна: СССР
Жанр: комедия
Продолжительность: 01:22:08
Перевод: Не требуется

Режиссер: Леонид Быков
Продюссер: И. Шурухт
Сценарий: Михаил Гиндин, Генрих Рябкин, Ким Рыжов

Премьера в мире: 25 мая 1965

Мировой рейтинг IMDB 6.80 (113)


В ролях: Леонид Быков, Ольга Красина, Игорь Горбачев, Сергей Филиппов, Георгий Вицин, Алексей Смирнов, Игорь Дмитриев, Алексей Кожевников, Елизавета Уварова, Гликерия Богданова-Чеснокова

Описание: Театральный гример Зайчик — скромный, честный и добрый человек — не может смириться с рутиной и бюрократизмом, царящими в театре. Поэтому Зайчик часто попадает в смешные и нелепые ситуации. Однако его упорству можно позавидовать.

Качество: DVDRip
Формат: AVI
Видео кодек: DivX
Аудио кодек: MP3
Видео: 720x544 (1.32:1), 25 fps, DivX Codec 4.x ~2207 kbps avg, 0.23 bit/pixel
Аудио#1: 48 kHz, MPEG Layer 3, 2 ch, ~256.00 kbps avg




Общее
Полное имя : F:\Закачки\Zaichik.1964.DVDRip.avi
Формат : AVI
Формат/Информация : Audio Video Interleave
Профиль формата : OpenDML
Размер файла : 1,42 Гбайт
Продолжительность : 1 ч. 22 м.
Общий поток : 2463 Кбит/сек
Режиссёр : O
Жанр : A
Программа кодирования : X
Формат оригинала/Имя : H

Видео
Идентификатор : 0
Формат : MPEG-4 Visual
Профиль формата : Simple@L5
Параметр BVOP формата : 1
Параметр QPel формата : Нет
Параметр GMC формата : Без точки перехода
Параметр матрицы формата : Default (H.263)
Идентификатор кодека : DIVX
Идентификатор кодека/Информация : Project Mayo
Идентификатор кодека/Подсказка : DivX 4
Продолжительность : 1 ч. 22 м.
Битрейт : 2200 Кбит/сек
Ширина : 720 пикселей
Высота : 544 пикселя
Соотношение сторон : 4:3
Частота кадров : 25,000 кадров/сек
Цветовое пространство : YUV
Субдискретизация насыщенности : 4:2:0
Битовая глубина : 8 бит
Тип развёртки : Прогрессивная
Метод сжатия : С потерями
Бит/(Пиксели*Кадры) : 0.225
Размер потока : 1,26 Гбайт (89%)
Библиотека кодирования : XviD 64

Аудио
Идентификатор : 1
Формат : MPEG Audio
Версия формата : Version 1
Профиль формата : Layer 3
Режим : Joint stereo
Расширение режима : MS Stereo
Идентификатор кодека : 55
Идентификатор кодека/Подсказка : MP3
Продолжительность : 1 ч. 22 м.
Вид битрейта : Постоянный
Битрейт : 256 Кбит/сек
Каналы : 2 канала
Частота : 48,0 КГц
Метод сжатия : С потерями
Размер потока : 151 Мбайт (10%)
Выравнивание : Соединение по промежуткам
Продолжительность промежутка : 24 мс. (0,60 видеокадр)
Библиотека кодирования : LAME3.98.2

piratbit.pw



Скачать Зайчик через торрент http://pic.kartinco.top/images/2000/2lgjv2oaci.jpg Скачать фильм Зайчик через торрент бесплантно в хорошем качестве Описание: Театральный гример Зайчик — скромный, честный и добрый человек — не может смириться с рутиной и бюрократизмом, царящими в театре. ... 4.8 10 6
Info! Золотая раздача, скачанное не засчитывается.
Торрент: Зарегистрирован [2012-04-08 08:17] · скачан: 138 раз
Статус: √ проверено
Размер: 1.42 GB
Как cкачать? Как скачать Зайчик через торрент | qTorrent

% Раздел Тема Автор DL S | L
Кино СССР [ 1.09 GB ] Зайчик [1964 СССР SATRip-AVC от AVP Studio] AVP Studio Скачать
3 | 0
Кино СССР [ 1.09 GB ] Зайчик [1964 СССР SATRip от AVP Studio] AVP Studio Скачать
2 | 0
Порно фильмы без сюжета [ 1.98 GB ] Без Сценария: Снежные Зайчики / Unscripted: Snow Bunnies [2017 18+ Teens All Sex WEB-DL 540p Оригинальный] nn99nn Скачать
1 | 0
Русское любительское видео [ 689 MB ] Девочки Зайчики. [2014 Homemade Teens Toys Webcam. CamRip] Pir@tya2010 Скачать
1 | 0
Гонзо [ 2.05 GB ] Brown Bunnies / Коричневые Зайчики [All Sex Interracial Black Big Butts. DVDRip] Shmel Скачать
1 | 0


Последний раз редактировалось: DJERG (2012-04-08 08:51), всего редактировалось 1 раз

28-11-2019 20:33  

Отключить всю рекламу на сайте

08-04-2012 08:42 Зайчик Скачать торрент  

На постере - Василий Быков ... в фильме Василия Быкова...
На Леонида исправьте!piratbit.pw



09-04-2012 05:35 Зайчик Скачать торрент  

За фильм конечно жирный +. Только звук опаздывает чем дальше,тем больше опаздывает.И какой-то неприятный треск в колонках.Нельзя-ли выложить нормальную версию,без этих косяков.А то смотреть невозможно.piratbit.pw



12-07-2012 17:58 Зайчик Скачать торрент  

ДА ....РАССИНХРОН капитальный........кайф теряется моментом..........piratbit.pw



    Дорогой пользователь! Огромная просьба, поблагодарите релизера, оцените раздачу и оставьте свои комментарий, если Вы скачали Зайчик через торрент бесплатно! Внесите свою лепту в развитие PiratBit!
    Комментировать посты могут только пользователи прошедшие не сложную регистрацию
    Показать сообщения:    

    Зайчик через торрент
    Скачать бесплатно Зайчик
    Зайчик скачать торрент
    Зайчик смотреть онлайн
    Cкачать фильм Зайчик бесплатно
    Зайчик скачать торрент в хорошем качестве
    Зайчик смотреть онлайн бесплатно в хорошем качестве


    Вы не можете начинать темы
    Вы не можете отвечать на сообщения
    Вы не можете редактировать свои сообщения
    Вы не можете удалять свои сообщения
    Вы не можете голосовать в опросах
    Вы не можете прикреплять файлы к сообщениям
    Вы можете скачивать файлы