1 сезон

1 сезон

iTunes

1

iTunes

Кинопоиск HD

iTunes

13

1 сезон

RePack

30

Deluxe

ВАЖНО

ИГРА 18+

pack

RePack

MK11
pack

Легкие деньги

RePack

jed

RePack

fifa19

RePack

RDR2

RePack

NEED FOR SPEED™ PAYBACK

4 сезон

9 сезон

Бесстыжие 9 сезон

Все сериалы

все сериалы на PB.wtf

RePack

FAR CRY 5
  
Magnet ссылка

Пока не сыграл в ящик / The Bucket List (Роб Райнер) [2007, драма, комедия, приключения, HDRip-AVC] DUB / от R.G. nICE Films piratbit.pw

Пока не сыграл в ящик через торрент piratbit.pw

Размер: 1.46 GB | Добавлен: 9 лет 1 мес. назад | Торрент скачан:275 раз
Скачать  

06-04-2012 22:27 Пока не сыграл в ящик Скачать торрент  

[font="Monotype Corsiva"]Пока не сыграл в ящик / The Bucket List
«Оторвись напоследок»


[font="Monotype Corsiva"]
Год выпуска: 2007
Страна: США
Жанр: драма, комедия, приключения
Продолжительность: 01:37:04
Перевод: Профессиональный (полное дублирование)

Режиссер: Роб Райнер

В ролях: Джек Николсон, Морган Фриман, Шон Хейс, Беверли Тодд, Роб Морроу, Альфонсо Фриман, Роуэна Кинг, Эннтон Берри мл., Верда Бриджес, Дестини Браунридж

Описание: Именно так решили два больных раком соседа по больничной палате, когда услышали свой приговор. Один из них вспыльчивый миллиардер, а второй эрудированный автомеханик. Они составляют список дел, которые необходимо сделать прежде, чем они сыграют в ящик, и отправляются в кругосветное путешествие, путешествие всей своей жизни.
Прыжки с парашютом? Посмотрим. Гонки на раритетных автомобилях? Сделано. Посмотреть на пирамиды? Отлично. Открыть радость жизни прежде, чем станет слишком поздно? Точно!


|

Качество: HDRip-AVC (Rip by Demonessa)
Исходник: BDRip 720p
Формат: MKV
Видео кодек: H.264
Аудио кодек: AC3
Видео: H.264, 1024*576, 23,976 кадр/сек, 1761 Кбит/сек, 0.125 Бит/(Пиксели*Кадры)
Аудио: AC3, 384 Кбит/сек, 6 каналов, 48,0 КГц

Код:

-[NoImage] x264 [info]: frame I:1273  Avg QP:17.70  size: 66590  PSNR Mean Y:46.12 U:50.62 V:50.74 Avg:47.14 Global:46.75
-[NoImage] x264 [info]: frame P:55738 Avg QP:20.42  size: 15113  PSNR Mean Y:43.85 U:50.05 V:49.77 Avg:45.03 Global:44.67
-[NoImage] x264 [info]: frame B:82638 Avg QP:21.85  size:  4288  PSNR Mean Y:44.04 U:50.37 V:50.10 Avg:45.14 Global:44.36

Код:

Общее
Уникальный идентификатор         : 236439913937723497420937093463647478199 (0xB1E0ABC8A0EF44B19DB7B8CD3DBC61B7)
Полное имя                       : E:\Video\R.G. nICE Films (Rips by Demonessa)\Пока не сыграл в ящик Rip by Demonessa.mkv
Формат                           : Matroska
Размер файла                     : 1,46 Гбайт
Продолжительность                : 1 ч. 37 м.
Общий поток                      : 2146 Кбит/сек
Дата кодирования                 : UTC 2012-02-20 10:32:12
Программа кодирования            : mkvmerge v5.2.1 ('A Far Off Place') built on Jan  2 2012 23:21:10
Библиотека кодирования           : libebml v1.2.3 + libmatroska v1.3.0

Видео
Идентификатор                    : 1
Формат                           : AVC
Формат/Информация                : Advanced Video Codec
Профиль формата                  : High@L4.1
Параметр CABAC формата           : Да
Параметр ReFrames формата        : 8 кадры
Идентификатор кодека             : V_MPEG4/ISO/AVC
Продолжительность                : 1 ч. 37 м.
Битрейт                          : 1761 Кбит/сек
Ширина                           : 1024 пикс.
Высота                           : 576 пикс.
Соотношение сторон               : 16:9
Частота кадров                   : 23,976 кадр/сек
Цветовое пространство            : YUV
Подвыборка цветности             : 4:2:0
Битовая глубина                  : 8 бит
Тип развёртки                    : Прогрессивная
Бит/(Пиксели*Кадры)              : 0.125
Размер потока                    : 1,17 Гбайт (80%)
Заголовок                        : Rip by Demonessa
Библиотека кодирования           : x264 core 115 r1995 c1e60b9
Настройки программы              : cabac=1 / ref=8 / deblock=1:-2:-1 / analyse=0x3:0x113 / me=umh / subme=9 / psy=1 / psy_rd=1.00:0.00 / mixed_ref=1 / me_range=32 / chroma_me=1 / trellis=2 / 8x8dct=1 / cqm=0 / deadzone=21,11 / fast_pskip=1 / chroma_qp_offset=-2 / threads=1 / sliced_threads=0 / nr=0 / decimate=1 / interlaced=0 / bluray_compat=0 / constrained_intra=0 / bframes=10 / b_pyramid=2 / b_adapt=1 / b_bias=0 / direct=1 / weightb=1 / open_gop=0 / weightp=2 / keyint=250 / keyint_min=23 / scenecut=40 / intra_refresh=0 / rc_lookahead=40 / rc=2pass / mbtree=1 / bitrate=1761 / ratetol=1.0 / qcomp=0.70 / qpmin=10 / qpmax=51 / qpstep=4 / cplxblur=20.0 / qblur=0.5 / ip_ratio=1.40 / aq=1:1.00
Язык                             : English

Аудио
Идентификатор                    : 2
Формат                           : AC-3
Формат/Информация                : Audio Coding 3
Расширение режима                : CM (complete main)
Идентификатор кодека             : A_AC3
Продолжительность                : 1 ч. 37 м.
Вид битрейта                     : Постоянный
Битрейт                          : 384 Кбит/сек
Канал(ы)                         : 6 канала(ов)
Расположение каналов             : Front: L C R, Side: L R, LFE
Частота                          : 48,0 КГц
Битовая глубина                  : 16 бит
Метод сжатия                     : С потерями
Размер потока                    : 267 Мбайт (18%)
Заголовок                        : Дубляж
Язык                             : Russian

скриншот  скриншот  скриншот  скриншот  скриншот  скриншот  скриншот  скриншот  скриншот  скриншот  
piratbit.pw



Скачать Пока не сыграл в ящик через торрент http://s002.youpic.su/pictures/1333742400/83e166cd92f518d3f15aa7e341b1523f.png Скачать фильм Пока не сыграл в ящик через торрент бесплантно в хорошем качестве Описание: Именно так решили два больных раком соседа по больничной палате, когда услышали свой приговор. Один из них вспыльчивый ... 9.3 10 12
Info! Золотая раздача, скачанное не засчитывается.
Торрент: Зарегистрирован [2012-04-06 22:27] · скачан: 275 раз
Статус: √ проверено
Размер: 1.46 GB
Как cкачать? Как скачать Пока не сыграл в ящик через торрент | UTorrent

28-11-2019 20:33  

Отключить всю рекламу на сайте

    Дорогой пользователь! Огромная просьба, поблагодарите релизера, оцените раздачу и оставьте свои комментарий, если Вы скачали Пока не сыграл в ящик через торрент бесплатно! Внесите свою лепту в развитие PiratBit!
    Комментировать посты могут только пользователи прошедшие не сложную регистрацию
    Показать сообщения:    

    Пока не сыграл в ящик через торрент
    Скачать бесплатно Пока не сыграл в ящик
    Пока не сыграл в ящик скачать торрент
    Пока не сыграл в ящик смотреть онлайн
    Cкачать фильм Пока не сыграл в ящик бесплатно
    Пока не сыграл в ящик скачать торрент в хорошем качестве
    Пока не сыграл в ящик смотреть онлайн бесплатно в хорошем качестве


    Вы не можете начинать темы
    Вы не можете отвечать на сообщения
    Вы не можете редактировать свои сообщения
    Вы не можете удалять свои сообщения
    Вы не можете голосовать в опросах
    Вы не можете прикреплять файлы к сообщениям
    Вы можете скачивать файлы