1 сезон

1 сезон

iTunes

1

КиноПоиск HD

Кинопоиск HD

iTunes

13

1 сезон

RePack

30

Новинка

ВАЖНО

ИГРА 18+

pack

RePack

MK11
pack

Легкие деньги

RePack

jed

RePack

fifa19

RePack

RDR2

RePack

NEED FOR SPEED™ PAYBACK

4 сезон

9 сезон

Бесстыжие 9 сезон

Все сериалы

все сериалы на PB.wtf

RePack

FAR CRY 5
  
Magnet ссылка

Пожары / Incendies (Дени Вильнёв / Denis Villeneuve) [2010, драма, детектив, военный, DVD9] R5 piratbit.pw

Пожары через торрент piratbit.pw

Размер: 5.06 GB | Добавлен: 9 лет 1 мес. назад | Торрент скачан:32 раза
Скачать  

06-03-2012 20:19 Пожары Скачать торрент  

[font="Georgia"]
Пожары / Incendies
«The search began at the opening of their mother's will.»
Страна: Канада, Франция
Студия: micro_scope media, Phi Group, TS Productions
Жанр: драма, детектив, военный
Год выпуска: 2010
Мировая премьера: 4 сентября 2010
Российская премьера: 15 декабря 2011
Дата выхода DVD: 1 марта 2012
Продолжительность: 02:05:30
Перевод: Профессиональный (многоголосый закадровый) [Лицензия]
Cубтитры: русские
Оригинальная аудиодорожка: французский
Режиссер: Дени Вильнёв / Denis Villeneuve
В ролях: Мустафа Камел, Хьюсен Сами, Реми Жирар, Мелисса Дезормо-Полен, Максим Годетт, Доминик Бриан, Лубна Азабаль
Описание: Лента повествует о путешествии близнецов — брата и сестры — на Ближний Восток, где они надеются найти своих родственников.
Бонусы: Интервью с режиссером Дени Вильневом, смотрите на DVD

Релиз группы:
Качество: DVD9 R5
Формат: DVD-Video
Видео кодек: MPEG2
Аудио кодек: AC3
Видео: PAL 16:9 (720x576(0.467)) MPEG Video, 25,000 кадр/сек, 4845 Кбит/сек
Аудио #1: Russian (Dolby AC3, 6 ch) 448 Кбит/сек, 48,0 КГц
Аудио #2: Francais (Dolby AC3, 6 ch) 448 Кбит/сек, 48,0 КГц



Title:
Size: 5.06 Gb ( 5 304 726 KBytes ) - DVD-9
Enabled regions: 1, 2, 3, 4, 5, 6, 7, 8

VTS_01 :
Play Length: 00:00:10
Video: PAL 16:9 (720x576) VBR, Auto Pan&Scan

VTS_02 :
Play Length: 00:00:21
Video: PAL 16:9 (720x576) VBR, Auto Pan&Scan
Audio:
Not specified (Dolby AC3, 6 ch)

VTS_03 :
Play Length: 02:05:30
Video: PAL 16:9 (720x576) VBR, Auto Pan&Scan
Audio:
Russian (Dolby AC3, 6 ch)
Francais (Dolby AC3, 6 ch)
Subtitles:
Russian

VTS_04 :
Play Length: 00:01:43
Video: PAL 4:3 (720x576) VBR
Audio:
Russian (Dolby AC3, 2 ch)

VTS_05 :
Play Length: 00:05:19
Video: PAL 16:9 (720x576) VBR, Auto Pan&Scan
Audio:
Russian (Dolby AC3, 2 ch)

Menu Video:
PAL 16:9 (720x576) VBR
Auto Pan&Scan, Auto Letterboxed
Menu English Language Unit :
Root Menu
Общее
Полное имя : G:\Новинки 2012\Pozhary.2010.DVD9\VIDEO_TS\VTS_03_2.VOB
Формат : MPEG-PS
Размер файла : 1024 Мбайт
Продолжительность : 24 м.
Режим общего битрейта : Переменный
Общий поток : 5857 Кбит/сек

Видео
Идентификатор : 224 (0xE0)
Формат : MPEG Video
Версия формата : Version 2
Профиль формата : Main@Main
Параметр BVOP формата : Да
Параметр матрицы формата : Выборочная
Продолжительность : 24 м.
Вид битрейта : Переменный
Битрейт : 4845 Кбит/сек
Максимальный битрейт : 9800 Кбит/сек
Ширина : 720 пикселей
Высота : 576 пикселей
Соотношение сторон : 16:9
Частота кадров : 25,000 кадров/сек
Стандарт вещания : PAL
Цветовое пространство : YUV
Субдискретизация насыщенности : 4:2:0
Битовая глубина : 8 бит
Тип развёртки : Чересстрочная
Порядок развёртки : Верхнее поле первое
Метод сжатия : С потерями
Бит/(Пиксели*Кадры) : 0.467
Размер потока : 847 Мбайт (83%)

Аудио #1
Идентификатор : 189 (0xBD)-128 (0x80)
Формат : AC-3
Формат/Информация : Audio Coding 3
Расширение режима : CM (complete main)
Режим смешивания : DVD-Video
Продолжительность : 24 м.
Вид битрейта : Постоянный
Битрейт : 448 Кбит/сек
Каналы : 6 каналов
Расположение каналов : Front: L C R, Side: L R, LFE
Частота : 48,0 КГц
Битовая глубина : 16 бит
Метод сжатия : С потерями
Задержка видео : -648 мс.
Размер потока : 78,3 Мбайт (8%)

Аудио #2
Идентификатор : 189 (0xBD)-129 (0x81)
Формат : AC-3
Формат/Информация : Audio Coding 3
Расширение режима : CM (complete main)
Режим смешивания : DVD-Video
Продолжительность : 24 м.
Вид битрейта : Постоянный
Битрейт : 448 Кбит/сек
Каналы : 6 каналов
Расположение каналов : Front: L C R, Side: L R, LFE
Частота : 48,0 КГц
Битовая глубина : 16 бит
Метод сжатия : С потерями
Задержка видео : -648 мс.
Размер потока : 78,3 Мбайт (8%)










piratbit.pw



Скачать Пожары через торрент http://i2.imageban.ru/out/2012/03/06/a28cb2ac6bf3796abc773de81ddbabbf.jpg Скачать фильм Пожары через торрент бесплантно в хорошем качестве Описание: Лента повествует о путешествии близнецов — брата и сестры — на Ближний Восток, где они надеются найти своих родственников.Бонусы: ... 5 10 2
Info! Золотая раздача, скачанное не засчитывается.
Торрент: Зарегистрирован [2012-03-06 20:19] · скачан: 32 раз
Статус: √ проверено
Размер: 5.06 GB
Как cкачать? Как скачать Пожары через торрент | UTorrent

28-11-2019 20:33  

Отключить всю рекламу на сайте

    Дорогой пользователь! Огромная просьба, поблагодарите релизера, оцените раздачу и оставьте свои комментарий, если Вы скачали Пожары через торрент бесплатно! Внесите свою лепту в развитие PiratBit!
    Комментировать посты могут только пользователи прошедшие не сложную регистрацию
    Показать сообщения:    

    Пожары через торрент
    Скачать бесплатно Пожары
    Пожары скачать торрент
    Пожары смотреть онлайн
    Cкачать фильм Пожары бесплатно
    Пожары скачать торрент в хорошем качестве
    Пожары смотреть онлайн бесплатно в хорошем качестве


    Вы не можете начинать темы
    Вы не можете отвечать на сообщения
    Вы не можете редактировать свои сообщения
    Вы не можете удалять свои сообщения
    Вы не можете голосовать в опросах
    Вы не можете прикреплять файлы к сообщениям
    Вы можете скачивать файлы