Ссылка на приватное зеркало нашего сайта всего за 1$. Внимание количество ограничено!!!

2 сезон

iTunes

1 сезон

1

2 сезон

2 сезон

iTunes

1 сезон

RePack

30

Ultimate

ВАЖНО

ИГРА 18+

pack

RePack

MK11
pack

Забери бонус

RePack

jed

!!Акция!!

Alien_Rage

RePack

fifa19

RePack

Assassins Creed: Odyssey

RePack

NEED FOR SPEED™ PAYBACK

4 сезон

9 сезон

Бесстыжие 9 сезон

Все сериалы

все сериалы на PB.wtf

RePack

FAR CRY 5
  

Кунг-Фу Панда - Секреты мастеров / Kung Fu Panda - Secrets of the Masters (Энтони Леондис) [2011 г., Мультфильм, короткометражка, комедия, приключения., DVDRip] piratbit.pw

Кунг-Фу Панда - Секреты мастеров через торрент piratbit.pw

Размер: 472 MB | Добавлен: 8 лет 8 мес. назад | Торрент скачан:453 раза
Скачать  

04-03-2012 23:02 Кунг-Фу Панда - Секреты мастеров Скачать торрент  

Кунг-Фу Панда - Секреты мастеров / Kung Fu Panda - Secrets of the Masters

Год выпуска: 2011
Страна: США
Жанр: Мультфильм, короткометражка, комедия, приключения.
Продолжительность: 00:22:15
Перевод: Любительский (многоголосый закадровый) SkyeFilmTV

Режиссер: Энтони Леондис
Продюссер: Карен Фостер, Эллен Косс
Сценарий: Пол МакЭвой, Тодд Бергер

http://www.imdb.com/title/tt1980162/


В ролях: Джек Блэк (Jack Black), Анджелина Джоли (Angelina Jolie), Сет Роген (Seth Rogen), Пол Шеер (Paul Schee), Деннис Хейсбёрт (Dennis Haysbert), Сумали Монтано (Sumalee Montano), Дастин Хоффман (Dustin Hoffman) и д.р.

Описание: Новые приключения панды По — Секреты Мастеров! В этом мультфильме По и Неистовая Пятерка раскроют секреты трех величайших героев кунг-фу: Носорога Громовержца, мастера Бушующего Быка и мастера Крока.Под предлогом большой опасности ПО приводит Мастера Тигрицу и Мастера Богомола на новую выставку Мастеров в честь мастера Носорога, Мастер Буйвола, и Мастера Крокодила. Хотя Тигрица и Богомол поняли что это обман, По интригует их интересной историей о том как три мастера впервые объединились.

Доп. информация: SkyeFilmTV - Роли озвучивали - За что ребятам БОЛЬШОЕ спасибо
- По и д.р. - JonEA;
- Мастер Крокодил - `+1_;
- Мастер Богомол, Шифу, Мастер Буйвол и д.р. - Deman;
- Одна из сестер Ву и д.р. - Трина Дубовицкая;
- Тигрица, одна из сестер Ву - kis-natella;
- Птичка - SerGoLeOne;
- Угвэй - Little;
- Официант, Оратор - Kapets;
- Мастер Носорог - Александр Чернов.

Качество: DVDRip
Формат: AVI
Видео кодек: XviD
Аудио кодек: AC3
Видео: 720x400 (1.80:1), 25 fps, XviD build 50 ~2563 kbps avg, 0.36 bit/pixel
Аудио#1: Русский - 48 kHz, AC3 Dolby Digital, 2/0 (L,R) ch, ~192.00 kbps avg
Аудио#2: English - 48 kHz, AC3 Dolby Digital, 2/0 (L,R) ch, ~192.00 kbps avg
General
Complete name : Kung.Fu.Panda-Secrets.of.the.Masters.avi
Format : AVI
Format/Info : Audio Video Interleave
File size : 472 MiB
Duration : 22mn 15s
Overall bit rate : 2 963 Kbps
Writing application : VirtualDubMod 1.5.10.2 (build 2540/release)
Writing library : VirtualDubMod build 2540/release
Video #0
ID : 0
Format : MPEG-4 Visual
Format profile : Advanced Simple@L5
Format settings, BVOP : 1
Format settings, QPel : No
Format settings, GMC : No warppoints
Format settings, Matrix : Custom
Codec ID : XVID
Codec ID/Hint : XviD
Duration : 22mn 15s
Bit rate : 2 565 Kbps
Width : 720 pixels
Height : 400 pixels
Display aspect ratio : 16:9
Frame rate : 25.000 fps
Color space : YUV
Chroma subsampling : 4:2:0
Bit depth : 8 bits
Scan type : Progressive
Compression mode : Lossy
Bits/(Pixel*Frame) : 0.356
Stream size : 408 MiB (87%)
Writing library : XviD 64
Audio #1
ID : 1
Format : AC-3
Format/Info : Audio Coding 3
Mode extension : CM (complete main)
Codec ID : 2000
Duration : 22mn 15s
Bit rate mode : Constant
Bit rate : 192 Kbps
Channel(s) : 2 channels
Channel positions : Front: L R
Sampling rate : 48.0 KHz
Bit depth : 16 bits
Compression mode : Lossy
Stream size : 30.6 MiB (6%)
Alignment : Split accross interleaves
Interleave, duration : 40 ms (1.00 video frame)
Interleave, preload duration : 500 ms
Audio #2
ID : 2
Format : AC-3
Format/Info : Audio Coding 3
Mode extension : CM (complete main)
Codec ID : 2000
Duration : 22mn 15s
Bit rate mode : Constant
Bit rate : 192 Kbps
Channel(s) : 2 channels
Channel positions : Front: L R
Sampling rate : 48.0 KHz
Bit depth : 16 bits
Compression mode : Lossy
Stream size : 30.6 MiB (6%)
Alignment : Split accross interleaves
Interleave, duration : 40 ms (1.00 video frame)
Interleave, preload duration : 500 ms
piratbit.pw



Скачать Кунг-Фу Панда - Секреты мастеров через торрент http://pic.kartinco.top/images/2011/4g2x7yo2rs.jpg Скачать фильм Кунг-Фу Панда - Секреты мастеров через торрент бесплантно в хорошем качестве Описание: Новые приключения панды По — Секреты Мастеров! В этом мультфильме По и Неистовая Пятерка раскроют секреты трех величайших героев ... 10 10 7
Info! Золотая раздача, скачанное не засчитывается.
Торрент: Зарегистрирован [2012-03-04 23:02] · скачан: 453 раз
Статус: √ проверено
Размер: 472 MB
Как cкачать? Как скачать Кунг-Фу Панда - Секреты мастеров через торрент | qTorrent

28-11-2019 20:33  

Отключить всю рекламу на сайте

    Дорогой пользователь! Огромная просьба, поблагодарите релизера, оцените раздачу и оставьте свои комментарий, если Вы скачали Кунг-Фу Панда - Секреты мастеров через торрент бесплатно! Внесите свою лепту в развитие PiratBit!
    Комментировать посты могут только пользователи прошедшие не сложную регистрацию
    Показать сообщения:    

    Кунг-Фу Панда - Секреты мастеров через торрент
    Скачать бесплатно Кунг-Фу Панда - Секреты мастеров
    Кунг-Фу Панда - Секреты мастеров скачать торрент
    Кунг-Фу Панда - Секреты мастеров смотреть онлайн
    Cкачать фильм Кунг-Фу Панда - Секреты мастеров бесплатно
    Кунг-Фу Панда - Секреты мастеров скачать торрент в хорошем качестве
    Кунг-Фу Панда - Секреты мастеров смотреть онлайн бесплатно в хорошем качестве


    Вы не можете начинать темы
    Вы не можете отвечать на сообщения
    Вы не можете редактировать свои сообщения
    Вы не можете удалять свои сообщения
    Вы не можете голосовать в опросах
    Вы не можете прикреплять файлы к сообщениям
    Вы можете скачивать файлы