Ссылка на приватное зеркало всего за 1$. Внимание количество ограничено!!!

iTunes

iTunes

iTunes

1

iTunes

iTunes

iTunes

iTunes

iTunes

30
pack

$ от Little Big

ВАЖНО

!!Акция!!

Alien_RageХит недели

RePack

Resident Evil 21

ИГРА 18+

pack

RePack

jed

!!Акция!!

Alien_Rage

RePack

fifa19

RePack

Assassins Creed: Odyssey

RePack

NEED FOR SPEED™ PAYBACK

4 сезон

9 сезон

Бесстыжие 9 сезон

Все сериалы

все сериалы на PB.wtf

RePack

FAR CRY 5
  

Молчание ягнят / The Silence of the Lambs (Джонатан Демме) [1991 г., триллер, криминал, детектив, Blu-Ray CEE] piratbit.pw

Молчание ягнят через торрент piratbit.pw

Размер: 42.64 GB | Добавлен: 8 лет 4 мес. назад | Торрент скачан:11 раз
Скачать  

24-02-2012 22:43 Молчание ягнят Скачать торрент  

Молчание ягнят / The Silence of the Lambs

Год выпуска: 1991
Страна: США
Жанр: триллер, криминал, детектив
Продолжительность: 01:58:32
Перевод: Профессиональный (полное дублирование) [Лицензия]

Режиссер: Джонатан Демме
Продюссер: Рональд М. Бозман, Эдвард Саксон, Кеннет Атт
Сценарий: Тед Тэлли, Томас Харрис

Бюджет: $19 000 000

Лицам до 17 лет обязательно присутствие взрослого




В ролях: Джоди Фостер, Энтони Хопкинс, Скотт Гленн, Тед Левайн, Брук Смит, Энтони Хилд, Кейси Леммонс, Дайан Бэйкер, Фрэнки Фэйзон, Дэн Батлер, Наталья Казначеева, Игорь Тарадайкин, Андрей Симанов, Михаил Тихонов, Александр Котов

Описание: Психопат похищает и убивает молодых женщин по всему Среднему Западу Америки. ФБР, уверенное в том, что все преступления совершены одним и тем же человеком, поручает агенту Клариссе Стерлинг встретиться с заключенным-маньяком, который мог бы объяснить следствию психологические мотивы серийного убийцы и тем самым вывести на его след.

Заключенный, доктор психиатрии Ганнибал Лектер, отбывает наказание за убийства и каннибализм. Он согласен помочь Клариссе лишь в том случае, если она попотчует его больное воображение подробностями своей сложной личной жизни. Такие двусмысленные отношения не только порождают в душе Клариссы внутренний конфликт, но и сталкивают ее лицом к лицу с помешанным до гениальности убийцей.

Воплощение дьявола настолько сильно, что ей может не хватить мужества и стойкости, чтобы остановить его…


Качество: Blu-Ray CEE
Контейнер: BDMV
Видео кодек: AVC
Аудио кодек: DTS
Видео: MPEG 2, 1920x1080 (16:9), 23.976 fps, 40.0 Mbps (0.805 bit/pixel)
Аудио #1: DTS HRA / Core, 48.0 KHz, 6 ch, 3 019 Kbps / 1 510 Kbps, CBR |Английский|
Аудио #2: AC-3, 48.0 KHz, 6 ch, 448 Kbps, CBR |Русский|
Аудио #3: AC-3, 48.0 KHz, 6 ch, 640 Kbps, CBR |Чешский|
Аудио #4: AC-3, 48.0 KHz, 6 ch, 448 Kbps, CBR |Венгерский|
Аудио #5: AC-3, 48.0 KHz, 6 ch, 448 Kbps, CBR |Польский|
Аудио #6: AC-3, 48.0 KHz, 6 ch, 448 Kbps, CBR |Португальский|
Аудио #7: DTS, 48.0 KHz, 6 ch, 755 Kbps, CBR |Испанский|
Аудио #8: AC-3 Dolby Digital, 48.0 KHz, 2 ch, 224 Kbps, CBR |Турецкий|
Субтитры: Английский, Хорватский, Чешский, Эстонский, Греческий, Венгерский, Латышский, Польский, Португальский, Русский, Словенский, Испанский, ТурецкийСкачать[sup] :ad: -->[/sup] [sup] <-- :ad: [/sup]
скриншот  скриншот  скриншот  скриншот  
бщее
Идентификатор : 0 (0x0)
Полное имя : F:\The Silence of the Lambs\BDMV\STREAM\00001.m2ts
Формат : BDAV
Формат/Информация : Blu-ray Video
Размер файла : 23,4 Гбайт
Продолжительность : 1 ч. 58 м.
Режим общего битрейта : Переменный
Общий поток : 28,2 Мбит/сек
Максимальный общий битрейт : 48,0 Мбит/сек

Видео
Идентификатор : 4113 (0x1011)
Идентификатор меню : 1 (0x1)
Формат : MPEG Video
Версия формата : Version 2
Профиль формата : Main@High
Параметр BVOP формата : Да
Параметр матрицы формата : По умолчанию
Параметр GOP формата : M=3, N=12
Идентификатор кодека : 2
Продолжительность : 1 ч. 58 м.
Вид битрейта : Переменный
Битрейт : 20,6 Мбит/сек
Максимальный битрейт : 40,0 Мбит/сек
Ширина : 1920 пикселей
Высота : 1080 пикселей
Соотношение сторон : 16:9
Частота кадров : 23,976 кадра/сек
Цветовое пространство : YUV
Субдискретизация насыщенности : 4:2:0
Битовая глубина : 8 бит
Тип развёртки : Прогрессивная
Метод сжатия : С потерями
Бит/(Пиксели*Кадры) : 0.415
Размер потока : 17,1 Гбайт (73%)

Аудио #1
Идентификатор : 4352 (0x1100)
Идентификатор меню : 1 (0x1)
Формат : DTS
Формат/Информация : Digital Theater Systems
Профиль формата : HRA / Core
Режим смешивания : Stream extension
Идентификатор кодека : 133
Продолжительность : 1 ч. 58 м.
Вид битрейта : Постоянный
Битрейт : 3019 Кбит/сек / 1510 Кбит/сек
Каналы : 6 каналов
Расположение каналов : Front: L C R, Side: L R, LFE
Частота : 48,0 КГц
Битовая глубина : 24 бит
Метод сжатия : С потерями
Размер потока : 2,50 Гбайт (11%)

Аудио #2
Идентификатор : 4353 (0x1101)
Идентификатор меню : 1 (0x1)
Формат : AC-3
Формат/Информация : Audio Coding 3
Расширение режима : CM (complete main)
Идентификатор кодека : 129
Продолжительность : 1 ч. 58 м.
Вид битрейта : Постоянный
Битрейт : 448 Кбит/сек
Каналы : 6 каналов
Расположение каналов : Front: L C R, Side: L R, LFE
Частота : 48,0 КГц
Битовая глубина : 16 бит
Метод сжатия : С потерями
Размер потока : 380 Мбайт (2%)

Аудио #3
Идентификатор : 4354 (0x1102)
Идентификатор меню : 1 (0x1)
Формат : AC-3
Формат/Информация : Audio Coding 3
Расширение режима : CM (complete main)
Идентификатор кодека : 129
Продолжительность : 1 ч. 58 м.
Вид битрейта : Постоянный
Битрейт : 640 Кбит/сек
Каналы : 6 каналов
Расположение каналов : Front: L C R, Side: L R, LFE
Частота : 48,0 КГц
Битовая глубина : 16 бит
Метод сжатия : С потерями
Размер потока : 543 Мбайт (2%)

Аудио #4
Идентификатор : 4355 (0x1103)
Идентификатор меню : 1 (0x1)
Формат : AC-3
Формат/Информация : Audio Coding 3
Расширение режима : CM (complete main)
Идентификатор кодека : 129
Продолжительность : 1 ч. 58 м.
Вид битрейта : Постоянный
Битрейт : 448 Кбит/сек
Каналы : 6 каналов
Расположение каналов : Front: L C R, Side: L R, LFE
Частота : 48,0 КГц
Битовая глубина : 16 бит
Метод сжатия : С потерями
Размер потока : 380 Мбайт (2%)

Аудио #5
Идентификатор : 4356 (0x1104)
Идентификатор меню : 1 (0x1)
Формат : AC-3
Формат/Информация : Audio Coding 3
Расширение режима : CM (complete main)
Идентификатор кодека : 129
Продолжительность : 1 ч. 58 м.
Вид битрейта : Постоянный
Битрейт : 448 Кбит/сек
Каналы : 6 каналов
Расположение каналов : Front: L C R, Side: L R, LFE
Частота : 48,0 КГц
Битовая глубина : 16 бит
Метод сжатия : С потерями
Размер потока : 380 Мбайт (2%)

Аудио #6
Идентификатор : 4357 (0x1105)
Идентификатор меню : 1 (0x1)
Формат : AC-3
Формат/Информация : Audio Coding 3
Расширение режима : CM (complete main)
Идентификатор кодека : 129
Продолжительность : 1 ч. 58 м.
Вид битрейта : Постоянный
Битрейт : 448 Кбит/сек
Каналы : 6 каналов
Расположение каналов : Front: L C R, Side: L R, LFE
Частота : 48,0 КГц
Битовая глубина : 16 бит
Метод сжатия : С потерями
Размер потока : 380 Мбайт (2%)

Аудио #7
Идентификатор : 4358 (0x1106)
Идентификатор меню : 1 (0x1)
Формат : DTS
Формат/Информация : Digital Theater Systems
Идентификатор кодека : 130
Продолжительность : 1 ч. 58 м.
Вид битрейта : Постоянный
Битрейт : 755 Кбит/сек
Каналы : 6 каналов
Расположение каналов : Front: L C R, Side: L R, LFE
Частота : 48,0 КГц
Битовая глубина : 16 бит
Метод сжатия : С потерями
Размер потока : 640 Мбайт (3%)

Аудио #8
Идентификатор : 4359 (0x1107)
Идентификатор меню : 1 (0x1)
Формат : AC-3
Формат/Информация : Audio Coding 3
Профиль формата : Dolby Digital
Расширение режима : CM (complete main)
Идентификатор кодека : 129
Продолжительность : 1 ч. 58 м.
Вид битрейта : Постоянный
Битрейт : 224 Кбит/сек
Каналы : 2 канала
Расположение каналов : Front: L R
Частота : 48,0 КГц
Битовая глубина : 16 бит
Метод сжатия : С потерями
Размер потока : 190 Мбайт (1%)

Disc Title: The Silence of the Lambs
Disc Size: 45 786 153 251 bytes
Protection: BD+
BD-Java: Yes
BDInfo: 0.5.8

Notes:

BDINFO HOME:
Cinema Squid
http://www.cinemasquid.com/blu-ray/tools/bdinfo

INCLUDES FORUMS REPORT FOR:
AVS Forum Blu-ray Audio and Video Specifications Thread
http://www.avsforum.com/avs-vb/showthread.php?t=1155731

********************
PLAYLIST: 00001.MPLS
********************

<--- BEGIN FORUMS PASTE --->

Код:

Total   Video
Title                                                           Codec   Length  Movie Size      Disc Size       Bitrate Bitrate Main Audio Track                          Secondary Audio Track
-----                                                           ------  ------- --------------  --------------  ------- ------- ------------------                        ---------------------
00001.MPLS                                                      MPEG-2  1:58:31 25 081 030 656  45 786 153 251  28,21   19,56   DTS-HD Hi-Res 5.1 3018Kbps (48kHz/24-bit)

Код:

DISC INFO:

Disc Title:     The Silence of the Lambs
Disc Size:      45 786 153 251 bytes
Protection:     BD+
BD-Java:        Yes
BDInfo:         0.5.8

PLAYLIST REPORT:

Name:                   00001.MPLS
Length:                 1:58:31.604 (h:m:s.ms)
Size:                   25 081 030 656 bytes
Total Bitrate:          28,21 Mbps

VIDEO:

Codec                   Bitrate             Description
-----                   -------             -----------
MPEG-2 Video            19557 kbps          1080p / 23,976 fps / 16:9

AUDIO:

Codec                           Language        Bitrate         Description
-----                           --------        -------         -----------
DTS-HD High-Res Audio           English         3018 kbps       5.1 / 48 kHz / 3018 kbps / 24-bit (DTS Core: 5.1 / 48 kHz / 1509 kbps / 24-bit)
Dolby Digital Audio             Hungarian       448 kbps        5.1 / 48 kHz / 448 kbps / DN -4dB
Dolby Digital Audio             Portuguese      640 kbps        5.1 / 48 kHz / 640 kbps / DN -4dB
Dolby Digital Audio             Czech           448 kbps        5.1 / 48 kHz / 448 kbps / DN -4dB
Dolby Digital Audio             Spanish         448 kbps        5.1 / 48 kHz / 448 kbps / DN -4dB
Dolby Digital Audio             Polish          448 kbps        5.1 / 48 kHz / 448 kbps / DN -4dB
DTS Audio                       Russian         768 kbps        5.1 / 48 kHz / 768 kbps / 16-bit
Dolby Digital Audio             Turkish         224 kbps        2.0 / 48 kHz / 224 kbps / DN -4dB / Dolby Surround

SUBTITLES:

Codec                           Language        Bitrate         Description
-----                           --------        -------         -----------
Presentation Graphics           English         32,027 kbps
Presentation Graphics           Hungarian       27,851 kbps
Presentation Graphics           Portuguese      30,859 kbps
Presentation Graphics           Czech           30,465 kbps
Presentation Graphics           Spanish         32,215 kbps
Presentation Graphics           Polish          30,719 kbps
Presentation Graphics           Russian         32,037 kbps
Presentation Graphics           Turkish         31,246 kbps
Presentation Graphics           Croatian        29,587 kbps
Presentation Graphics           Estonian        29,081 kbps
Presentation Graphics           Greek           33,525 kbps
Presentation Graphics           Latvian         27,594 kbps
Presentation Graphics           Slovenian       27,708 kbps
Presentation Graphics           Portuguese      33,088 kbps

FILES:

Name            Time In         Length          Size            Total Bitrate
----            -------         ------          ----            -------------
00001.M2TS      0:00:00.000     1:58:31.604     25 081 030 656  28 214

CHAPTERS:

Number          Time In         Length          Avg Video Rate  Max 1-Sec Rate  Max 1-Sec Time  Max 5-Sec Rate  Max 5-Sec Time  Max 10Sec Rate  Max 10Sec Time  Avg Frame Size  Max Frame Size  Max Frame Time
------          -------         ------          --------------  --------------  --------------  --------------  --------------  --------------  --------------  --------------  --------------  --------------
1               0:00:00.000     0:05:16.274     22 947 kbps     44 231 kbps     00:02:07.377    40 552 kbps     00:02:04.582    38 239 kbps     00:02:02.831    119 619 bytes   627 085 bytes   00:01:18.995
2               0:05:16.274     0:02:58.136     17 489 kbps     22 388 kbps     00:07:58.436    19 781 kbps     00:05:35.043    19 635 kbps     00:05:30.038    91 180 bytes    555 791 bytes   00:07:59.270
3               0:08:14.410     0:03:34.172     18 077 kbps     22 851 kbps     00:09:28.484    20 108 kbps     00:09:32.446    19 955 kbps     00:09:27.567    94 244 bytes    537 591 bytes   00:08:18.414
4               0:11:48.582     0:09:50.756     19 068 kbps     42 853 kbps     00:20:46.620    37 042 kbps     00:20:45.869    36 353 kbps     00:20:45.911    99 413 bytes    700 463 bytes   00:20:39.780
5               0:21:39.339     0:05:19.485     19 447 kbps     36 456 kbps     00:25:04.419    29 966 kbps     00:25:00.415    25 544 kbps     00:25:16.223    101 389 bytes   500 151 bytes   00:25:05.212
6               0:26:58.825     0:04:39.654     17 593 kbps     23 697 kbps     00:29:14.335    21 659 kbps     00:29:10.331    21 422 kbps     00:29:05.326    91 722 bytes    571 590 bytes   00:31:27.969
7               0:31:38.479     0:03:21.367     20 291 kbps     33 164 kbps     00:34:14.552    28 672 kbps     00:34:12.050    27 462 kbps     00:34:14.010    105 788 bytes   554 574 bytes   00:34:59.847
8               0:34:59.847     0:03:39.469     20 903 kbps     31 452 kbps     00:36:38.112    25 633 kbps     00:38:34.312    24 035 kbps     00:38:29.307    108 980 bytes   615 880 bytes   00:38:39.025
9               0:38:39.317     0:02:35.071     18 141 kbps     23 881 kbps     00:40:21.168    20 936 kbps     00:40:37.810    20 156 kbps     00:40:32.805    94 578 bytes    457 020 bytes   00:39:30.701
10              0:41:14.388     0:05:26.576     18 001 kbps     32 742 kbps     00:42:56.949    25 688 kbps     00:46:08.182    25 284 kbps     00:46:08.182    93 851 bytes    440 849 bytes   00:41:47.838
11              0:46:40.964     0:03:03.016     20 491 kbps     30 447 kbps     00:47:33.475    27 578 kbps     00:49:38.975    26 354 kbps     00:49:17.913    106 832 bytes   674 606 bytes   00:49:43.980
12              0:49:43.980     0:01:51.736     22 469 kbps     29 370 kbps     00:49:43.980    25 794 kbps     00:50:28.316    25 359 kbps     00:50:23.311    117 143 bytes   615 462 bytes   00:49:46.441
13              0:51:35.717     0:06:09.619     19 972 kbps     34 767 kbps     00:54:38.817    33 580 kbps     00:54:38.817    32 088 kbps     00:54:13.416    104 124 bytes   558 227 bytes   00:54:46.116
14              0:57:45.336     0:01:44.896     20 335 kbps     29 962 kbps     00:58:13.364    26 787 kbps     00:58:05.690    25 488 kbps     00:58:06.357    106 018 bytes   559 073 bytes   00:59:19.722
15              0:59:30.233     0:01:39.641     18 389 kbps     24 816 kbps     00:59:51.296    21 846 kbps     01:00:49.896    21 266 kbps     01:00:49.896    95 872 bytes    559 735 bytes   01:00:31.169
16              1:01:09.874     0:04:47.245     20 191 kbps     38 475 kbps     01:01:16.172    37 626 kbps     01:01:16.172    36 375 kbps     01:01:11.167    105 268 bytes   583 062 bytes   01:05:57.119
17              1:05:57.119     0:08:17.079     18 916 kbps     28 468 kbps     01:14:13.198    24 006 kbps     01:14:09.194    23 843 kbps     01:14:04.189    98 621 bytes    594 649 bytes   01:06:00.122
18              1:14:14.199     0:04:10.166     20 755 kbps     31 846 kbps     01:16:48.478    27 054 kbps     01:16:48.437    25 487 kbps     01:16:43.140    108 208 bytes   684 063 bytes   01:14:35.137
19              1:18:24.366     0:02:47.250     19 034 kbps     29 146 kbps     01:20:22.526    22 407 kbps     01:20:19.481    21 167 kbps     01:20:20.774    99 232 bytes    616 930 bytes   01:19:04.614
20              1:21:11.616     0:03:56.819     19 495 kbps     27 283 kbps     01:24:39.991    23 783 kbps     01:21:34.639    23 263 kbps     01:21:32.220    101 639 bytes   610 346 bytes   01:24:37.322
21              1:25:08.436     0:02:07.585     19 132 kbps     28 636 kbps     01:25:37.715    23 254 kbps     01:25:37.298    21 498 kbps     01:25:36.047    99 747 bytes    670 446 bytes   01:26:20.175
22              1:27:16.022     0:06:00.651     19 947 kbps     28 184 kbps     01:27:51.599    25 180 kbps     01:27:18.274    23 542 kbps     01:27:45.885    103 996 bytes   751 896 bytes   01:27:51.641
23              1:33:16.674     0:03:24.370     20 392 kbps     31 061 kbps     01:35:29.557    26 343 kbps     01:35:52.329    23 527 kbps     01:35:21.048    106 315 bytes   662 616 bytes   01:36:26.155
24              1:36:41.045     0:00:53.678     17 550 kbps     22 303 kbps     01:36:42.421    19 058 kbps     01:37:29.718    18 535 kbps     01:37:24.713    91 498 bytes    557 506 bytes   01:37:30.261
25              1:37:34.723     0:02:22.392     18 548 kbps     26 316 kbps     01:38:07.923    21 345 kbps     01:38:07.798    20 091 kbps     01:39:11.570    96 699 bytes    699 568 bytes   01:38:01.917
26              1:39:57.116     0:03:20.366     18 391 kbps     26 937 kbps     01:41:35.172    21 426 kbps     01:42:20.759    20 103 kbps     01:42:17.923    95 882 bytes    743 668 bytes   01:41:23.368
27              1:43:17.482     0:07:47.175     20 016 kbps     37 738 kbps     01:45:26.695    34 835 kbps     01:45:25.569    33 846 kbps     01:45:24.443    104 354 bytes   704 819 bytes   01:49:53.253
28              1:51:04.658     0:07:26.946     19 797 kbps     32 568 kbps     01:58:03.951    31 098 kbps     01:58:02.533    29 461 kbps     01:57:58.905    103 224 bytes   393 092 bytes   01:58:05.703

STREAM DIAGNOSTICS:

File            PID             Type            Codec           Language                Seconds                 Bitrate                 Bytes           Packets
----            ---             ----            -----           --------                --------------          --------------          -------------   -----
00001.M2TS      4113 (0x1011)   0x02            MPEG-2                                  7111,438                19 557                  17 385 127 185  94 583 573
00001.M2TS      4352 (0x1100)   0x85            DTS-HD HR       eng (English)           7111,438                3 018                   2 682 853 112   16 001 112
00001.M2TS      4353 (0x1101)   0x81            AC3             hun (Hungarian)         7111,438                448                     398 250 496     2 222 380
00001.M2TS      4354 (0x1102)   0x81            AC3             por (Portuguese)        7111,438                640                     568 929 280     3 333 570
00001.M2TS      4355 (0x1103)   0x81            AC3             ces (Czech)             7111,438                448                     398 250 496     2 222 380
00001.M2TS      4356 (0x1104)   0x81            AC3             spa (Spanish)           7111,438                448                     398 250 496     2 222 380
00001.M2TS      4357 (0x1105)   0x81            AC3             pol (Polish)            7111,438                448                     398 250 496     2 222 380
00001.M2TS      4358 (0x1106)   0x82            DTS             rus (Russian)           7111,438                768                     682 714 112     4 000 278
00001.M2TS      4359 (0x1107)   0x81            AC3             tur (Turkish)           7111,438                224                     199 125 248     1 111 190
00001.M2TS      4608 (0x1200)   0x90            PGS             eng (English)           7111,438                32                      28 470 299      163 552
00001.M2TS      4609 (0x1201)   0x90            PGS             hun (Hungarian)         7111,438                28                      24 758 131      143 544
00001.M2TS      4610 (0x1202)   0x90            PGS             por (Portuguese)        7111,438                31                      27 432 226      158 125
00001.M2TS      4611 (0x1203)   0x90            PGS             ces (Czech)             7111,438                30                      27 082 055      156 210
00001.M2TS      4612 (0x1204)   0x90            PGS             spa (Spanish)           7111,438                32                      28 637 306      164 065
00001.M2TS      4613 (0x1205)   0x90            PGS             pol (Polish)            7111,438                31                      27 307 919      157 307
00001.M2TS      4614 (0x1206)   0x90            PGS             rus (Russian)           7111,438                32                      28 479 476      163 858
00001.M2TS      4615 (0x1207)   0x90            PGS             tur (Turkish)           7111,438                31                      27 775 891      159 974
00001.M2TS      4616 (0x1208)   0x90            PGS             hrv (Croatian)          7111,438                30                      26 301 770      151 978
00001.M2TS      4617 (0x1209)   0x90            PGS             est (Estonian)          7111,438                29                      25 851 903      149 532
00001.M2TS      4618 (0x120A)   0x90            PGS             ell (Greek)             7111,438                34                      29 802 093      171 013
00001.M2TS      4619 (0x120B)   0x90            PGS             lav (Latvian)           7111,438                28                      24 529 386      142 370
00001.M2TS      4620 (0x120C)   0x90            PGS             slv (Slovenian)         7111,438                28                      24 631 424      142 908
00001.M2TS      4621 (0x120D)   0x90            PGS             por (Portuguese)        7111,438                33                      29 413 572      168 860

<---- END FORUMS PASTE ---->

QUICK SUMMARY:

Disc Title: The Silence of the Lambs
Disc Size: 45 786 153 251 bytes
Protection: BD+
BD-Java: Yes
Playlist: 00001.MPLS
Size: 25 081 030 656 bytes
Length: 1:58:31.604
Total Bitrate: 28,21 Mbps
Video: MPEG-2 Video / 19557 kbps / 1080p / 23,976 fps / 16:9
Audio: English / DTS-HD High-Res Audio / 5.1 / 48 kHz / 3018 kbps / 24-bit (DTS Core: 5.1 / 48 kHz / 1509 kbps / 24-bit)
Audio: Hungarian / Dolby Digital Audio / 5.1 / 48 kHz / 448 kbps / DN -4dB
Audio: Portuguese / Dolby Digital Audio / 5.1 / 48 kHz / 640 kbps / DN -4dB
Audio: Czech / Dolby Digital Audio / 5.1 / 48 kHz / 448 kbps / DN -4dB
Audio: Spanish / Dolby Digital Audio / 5.1 / 48 kHz / 448 kbps / DN -4dB
Audio: Polish / Dolby Digital Audio / 5.1 / 48 kHz / 448 kbps / DN -4dB
Audio: Russian / DTS Audio / 5.1 / 48 kHz / 768 kbps / 16-bit
Audio: Turkish / Dolby Digital Audio / 2.0 / 48 kHz / 224 kbps / DN -4dB / Dolby Surround
Subtitle: English / 32,027 kbps
Subtitle: Hungarian / 27,851 kbps
Subtitle: Portuguese / 30,859 kbps
Subtitle: Czech / 30,465 kbps
Subtitle: Spanish / 32,215 kbps
Subtitle: Polish / 30,719 kbps
Subtitle: Russian / 32,037 kbps
Subtitle: Turkish / 31,246 kbps
Subtitle: Croatian / 29,587 kbps
Subtitle: Estonian / 29,081 kbps
Subtitle: Greek / 33,525 kbps
Subtitle: Latvian / 27,594 kbps
Subtitle: Slovenian / 27,708 kbps
Subtitle: Portuguese / 33,088 kbps

********************
PLAYLIST: 00002.MPLS
********************

<--- BEGIN FORUMS PASTE --->

Код:

Total   Video
Title                                                           Codec   Length  Movie Size      Disc Size       Bitrate Bitrate Main Audio Track                          Secondary Audio Track
-----                                                           ------  ------- --------------  --------------  ------- ------- ------------------                        ---------------------
00002.MPLS                                                      MPEG-2  1:58:31 25 081 030 656  45 786 153 251  28,21   19,56   DTS-HD Hi-Res 5.1 3018Kbps (48kHz/24-bit)

Код:

DISC INFO:

Disc Title:     The Silence of the Lambs
Disc Size:      45 786 153 251 bytes
Protection:     BD+
BD-Java:        Yes
BDInfo:         0.5.8

PLAYLIST REPORT:

Name:                   00002.MPLS
Length:                 1:58:31.604 (h:m:s.ms)
Size:                   25 081 030 656 bytes
Total Bitrate:          28,21 Mbps

(*) Indicates included stream hidden by this playlist.

VIDEO:

Codec                   Bitrate             Description
-----                   -------             -----------
MPEG-2 Video            19557 kbps          1080p / 23,976 fps / 16:9

AUDIO:

Codec                           Language        Bitrate         Description
-----                           --------        -------         -----------
DTS-HD High-Res Audio           English         3018 kbps       5.1 / 48 kHz / 3018 kbps / 24-bit (DTS Core: 5.1 / 48 kHz / 1509 kbps / 24-bit)
Dolby Digital Audio             Hungarian       448 kbps        5.1 / 48 kHz / 448 kbps / DN -4dB
Dolby Digital Audio             Portuguese      640 kbps        5.1 / 48 kHz / 640 kbps / DN -4dB
Dolby Digital Audio             Czech           448 kbps        5.1 / 48 kHz / 448 kbps / DN -4dB
Dolby Digital Audio             Spanish         448 kbps        5.1 / 48 kHz / 448 kbps / DN -4dB
Dolby Digital Audio             Polish          448 kbps        5.1 / 48 kHz / 448 kbps / DN -4dB
DTS Audio                       Russian         768 kbps        5.1 / 48 kHz / 768 kbps / 16-bit
Dolby Digital Audio             Turkish         224 kbps        2.0 / 48 kHz / 224 kbps / DN -4dB / Dolby Surround

SUBTITLES:

Codec                           Language        Bitrate         Description
-----                           --------        -------         -----------
Presentation Graphics           English         32,027 kbps
Presentation Graphics           Hungarian       27,851 kbps
Presentation Graphics           Portuguese      30,859 kbps
Presentation Graphics           Czech           30,465 kbps
Presentation Graphics           Spanish         32,215 kbps
Presentation Graphics           Polish          30,719 kbps
Presentation Graphics           Russian         32,037 kbps
Presentation Graphics           Turkish         31,246 kbps
Presentation Graphics           Croatian        29,587 kbps
Presentation Graphics           Estonian        29,081 kbps
Presentation Graphics           Greek           33,525 kbps
Presentation Graphics           Latvian         27,594 kbps
Presentation Graphics           Slovenian       27,708 kbps
* Presentation Graphics         Portuguese      33,088 kbps

FILES:

Name            Time In         Length          Size            Total Bitrate
----            -------         ------          ----            -------------
00001.M2TS      0:00:00.000     1:58:31.604     25 081 030 656  28 214

CHAPTERS:

Number          Time In         Length          Avg Video Rate  Max 1-Sec Rate  Max 1-Sec Time  Max 5-Sec Rate  Max 5-Sec Time  Max 10Sec Rate  Max 10Sec Time  Avg Frame Size  Max Frame Size  Max Frame Time
------          -------         ------          --------------  --------------  --------------  --------------  --------------  --------------  --------------  --------------  --------------  --------------
1               0:00:00.000     0:05:16.274     22 947 kbps     44 231 kbps     00:02:07.377    40 552 kbps     00:02:04.582    38 239 kbps     00:02:02.831    119 619 bytes   627 085 bytes   00:01:18.995
2               0:05:16.274     0:02:58.136     17 489 kbps     22 388 kbps     00:07:58.436    19 781 kbps     00:05:35.043    19 635 kbps     00:05:30.038    91 180 bytes    555 791 bytes   00:07:59.270
3               0:08:14.410     0:03:34.172     18 077 kbps     22 851 kbps     00:09:28.484    20 108 kbps     00:09:32.446    19 955 kbps     00:09:27.567    94 244 bytes    537 591 bytes   00:08:18.414
4               0:11:48.582     0:09:50.756     19 068 kbps     42 853 kbps     00:20:46.620    37 042 kbps     00:20:45.869    36 353 kbps     00:20:45.911    99 413 bytes    700 463 bytes   00:20:39.780
5               0:21:39.339     0:05:19.485     19 447 kbps     36 456 kbps     00:25:04.419    29 966 kbps     00:25:00.415    25 544 kbps     00:25:16.223    101 389 bytes   500 151 bytes   00:25:05.212
6               0:26:58.825     0:04:39.654     17 593 kbps     23 697 kbps     00:29:14.335    21 659 kbps     00:29:10.331    21 422 kbps     00:29:05.326    91 722 bytes    571 590 bytes   00:31:27.969
7               0:31:38.479     0:03:21.367     20 291 kbps     33 164 kbps     00:34:14.552    28 672 kbps     00:34:12.050    27 462 kbps     00:34:14.010    105 788 bytes   554 574 bytes   00:34:59.847
8               0:34:59.847     0:03:39.469     20 903 kbps     31 452 kbps     00:36:38.112    25 633 kbps     00:38:34.312    24 035 kbps     00:38:29.307    108 980 bytes   615 880 bytes   00:38:39.025
9               0:38:39.317     0:02:35.071     18 141 kbps     23 881 kbps     00:40:21.168    20 936 kbps     00:40:37.810    20 156 kbps     00:40:32.805    94 578 bytes    457 020 bytes   00:39:30.701
10              0:41:14.388     0:05:26.576     18 001 kbps     32 742 kbps     00:42:56.949    25 688 kbps     00:46:08.182    25 284 kbps     00:46:08.182    93 851 bytes    440 849 bytes   00:41:47.838
11              0:46:40.964     0:03:03.016     20 491 kbps     30 447 kbps     00:47:33.475    27 578 kbps     00:49:38.975    26 354 kbps     00:49:17.913    106 832 bytes   674 606 bytes   00:49:43.980
12              0:49:43.980     0:01:51.736     22 469 kbps     29 370 kbps     00:49:43.980    25 794 kbps     00:50:28.316    25 359 kbps     00:50:23.311    117 143 bytes   615 462 bytes   00:49:46.441
13              0:51:35.717     0:06:09.619     19 972 kbps     34 767 kbps     00:54:38.817    33 580 kbps     00:54:38.817    32 088 kbps     00:54:13.416    104 124 bytes   558 227 bytes   00:54:46.116
14              0:57:45.336     0:01:44.896     20 335 kbps     29 962 kbps     00:58:13.364    26 787 kbps     00:58:05.690    25 488 kbps     00:58:06.357    106 018 bytes   559 073 bytes   00:59:19.722
15              0:59:30.233     0:01:39.641     18 389 kbps     24 816 kbps     00:59:51.296    21 846 kbps     01:00:49.896    21 266 kbps     01:00:49.896    95 872 bytes    559 735 bytes   01:00:31.169
16              1:01:09.874     0:04:47.245     20 191 kbps     38 475 kbps     01:01:16.172    37 626 kbps     01:01:16.172    36 375 kbps     01:01:11.167    105 268 bytes   583 062 bytes   01:05:57.119
17              1:05:57.119     0:08:17.079     18 916 kbps     28 468 kbps     01:14:13.198    24 006 kbps     01:14:09.194    23 843 kbps     01:14:04.189    98 621 bytes    594 649 bytes   01:06:00.122
18              1:14:14.199     0:04:10.166     20 755 kbps     31 846 kbps     01:16:48.478    27 054 kbps     01:16:48.437    25 487 kbps     01:16:43.140    108 208 bytes   684 063 bytes   01:14:35.137
19              1:18:24.366     0:02:47.250     19 034 kbps     29 146 kbps     01:20:22.526    22 407 kbps     01:20:19.481    21 167 kbps     01:20:20.774    99 232 bytes    616 930 bytes   01:19:04.614
20              1:21:11.616     0:03:56.819     19 495 kbps     27 283 kbps     01:24:39.991    23 783 kbps     01:21:34.639    23 263 kbps     01:21:32.220    101 639 bytes   610 346 bytes   01:24:37.322
21              1:25:08.436     0:02:07.585     19 132 kbps     28 636 kbps     01:25:37.715    23 254 kbps     01:25:37.298    21 498 kbps     01:25:36.047    99 747 bytes    670 446 bytes   01:26:20.175
22              1:27:16.022     0:06:00.651     19 947 kbps     28 184 kbps     01:27:51.599    25 180 kbps     01:27:18.274    23 542 kbps     01:27:45.885    103 996 bytes   751 896 bytes   01:27:51.641
23              1:33:16.674     0:03:24.370     20 392 kbps     31 061 kbps     01:35:29.557    26 343 kbps     01:35:52.329    23 527 kbps     01:35:21.048    106 315 bytes   662 616 bytes   01:36:26.155
24              1:36:41.045     0:00:53.678     17 550 kbps     22 303 kbps     01:36:42.421    19 058 kbps     01:37:29.718    18 535 kbps     01:37:24.713    91 498 bytes    557 506 bytes   01:37:30.261
25              1:37:34.723     0:02:22.392     18 548 kbps     26 316 kbps     01:38:07.923    21 345 kbps     01:38:07.798    20 091 kbps     01:39:11.570    96 699 bytes    699 568 bytes   01:38:01.917
26              1:39:57.116     0:03:20.366     18 391 kbps     26 937 kbps     01:41:35.172    21 426 kbps     01:42:20.759    20 103 kbps     01:42:17.923    95 882 bytes    743 668 bytes   01:41:23.368
27              1:43:17.482     0:07:47.175     20 016 kbps     37 738 kbps     01:45:26.695    34 835 kbps     01:45:25.569    33 846 kbps     01:45:24.443    104 354 bytes   704 819 bytes   01:49:53.253
28              1:51:04.658     0:07:26.946     19 797 kbps     32 568 kbps     01:58:03.951    31 098 kbps     01:58:02.533    29 461 kbps     01:57:58.905    103 224 bytes   393 092 bytes   01:58:05.703

STREAM DIAGNOSTICS:

File            PID             Type            Codec           Language                Seconds                 Bitrate                 Bytes           Packets
----            ---             ----            -----           --------                --------------          --------------          -------------   -----
00001.M2TS      4113 (0x1011)   0x02            MPEG-2                                  7111,438                19 557                  17 385 127 185  94 583 573
00001.M2TS      4352 (0x1100)   0x85            DTS-HD HR       eng (English)           7111,438                3 018                   2 682 853 112   16 001 112
00001.M2TS      4353 (0x1101)   0x81            AC3             hun (Hungarian)         7111,438                448                     398 250 496     2 222 380
00001.M2TS      4354 (0x1102)   0x81            AC3             por (Portuguese)        7111,438                640                     568 929 280     3 333 570
00001.M2TS      4355 (0x1103)   0x81            AC3             ces (Czech)             7111,438                448                     398 250 496     2 222 380
00001.M2TS      4356 (0x1104)   0x81            AC3             spa (Spanish)           7111,438                448                     398 250 496     2 222 380
00001.M2TS      4357 (0x1105)   0x81            AC3             pol (Polish)            7111,438                448                     398 250 496     2 222 380
00001.M2TS      4358 (0x1106)   0x82            DTS             rus (Russian)           7111,438                768                     682 714 112     4 000 278
00001.M2TS      4359 (0x1107)   0x81            AC3             tur (Turkish)           7111,438                224                     199 125 248     1 111 190
00001.M2TS      4608 (0x1200)   0x90            PGS             eng (English)           7111,438                32                      28 470 299      163 552
00001.M2TS      4609 (0x1201)   0x90            PGS             hun (Hungarian)         7111,438                28                      24 758 131      143 544
00001.M2TS      4610 (0x1202)   0x90            PGS             por (Portuguese)        7111,438                31                      27 432 226      158 125
00001.M2TS      4611 (0x1203)   0x90            PGS             ces (Czech)             7111,438                30                      27 082 055      156 210
00001.M2TS      4612 (0x1204)   0x90            PGS             spa (Spanish)           7111,438                32                      28 637 306      164 065
00001.M2TS      4613 (0x1205)   0x90            PGS             pol (Polish)            7111,438                31                      27 307 919      157 307
00001.M2TS      4614 (0x1206)   0x90            PGS             rus (Russian)           7111,438                32                      28 479 476      163 858
00001.M2TS      4615 (0x1207)   0x90            PGS             tur (Turkish)           7111,438                31                      27 775 891      159 974
00001.M2TS      4616 (0x1208)   0x90            PGS             hrv (Croatian)          7111,438                30                      26 301 770      151 978
00001.M2TS      4617 (0x1209)   0x90            PGS             est (Estonian)          7111,438                29                      25 851 903      149 532
00001.M2TS      4618 (0x120A)   0x90            PGS             ell (Greek)             7111,438                34                      29 802 093      171 013
00001.M2TS      4619 (0x120B)   0x90            PGS             lav (Latvian)           7111,438                28                      24 529 386      142 370
00001.M2TS      4620 (0x120C)   0x90            PGS             slv (Slovenian)         7111,438                28                      24 631 424      142 908
00001.M2TS      4621 (0x120D)   0x90            PGS             por (Portuguese)        7111,438                33                      29 413 572      168 860

<---- END FORUMS PASTE ---->

QUICK SUMMARY:

Disc Title: The Silence of the Lambs
Disc Size: 45 786 153 251 bytes
Protection: BD+
BD-Java: Yes
Playlist: 00002.MPLS
Size: 25 081 030 656 bytes
Length: 1:58:31.604
Total Bitrate: 28,21 Mbps
Video: MPEG-2 Video / 19557 kbps / 1080p / 23,976 fps / 16:9
Audio: English / DTS-HD High-Res Audio / 5.1 / 48 kHz / 3018 kbps / 24-bit (DTS Core: 5.1 / 48 kHz / 1509 kbps / 24-bit)
Audio: Hungarian / Dolby Digital Audio / 5.1 / 48 kHz / 448 kbps / DN -4dB
Audio: Portuguese / Dolby Digital Audio / 5.1 / 48 kHz / 640 kbps / DN -4dB
Audio: Czech / Dolby Digital Audio / 5.1 / 48 kHz / 448 kbps / DN -4dB
Audio: Spanish / Dolby Digital Audio / 5.1 / 48 kHz / 448 kbps / DN -4dB
Audio: Polish / Dolby Digital Audio / 5.1 / 48 kHz / 448 kbps / DN -4dB
Audio: Russian / DTS Audio / 5.1 / 48 kHz / 768 kbps / 16-bit
Audio: Turkish / Dolby Digital Audio / 2.0 / 48 kHz / 224 kbps / DN -4dB / Dolby Surround
Subtitle: English / 32,027 kbps
Subtitle: Hungarian / 27,851 kbps
Subtitle: Portuguese / 30,859 kbps
Subtitle: Czech / 30,465 kbps
Subtitle: Spanish / 32,215 kbps
Subtitle: Polish / 30,719 kbps
Subtitle: Russian / 32,037 kbps
Subtitle: Turkish / 31,246 kbps
Subtitle: Croatian / 29,587 kbps
Subtitle: Estonian / 29,081 kbps
Subtitle: Greek / 33,525 kbps
Subtitle: Latvian / 27,594 kbps
Subtitle: Slovenian / 27,708 kbps
* Subtitle: Portuguese / 33,088 kbps

********************
PLAYLIST: 00003.MPLS
********************

<--- BEGIN FORUMS PASTE --->

Код:

Total   Video
Title                                                           Codec   Length  Movie Size      Disc Size       Bitrate Bitrate Main Audio Track                          Secondary Audio Track
-----                                                           ------  ------- --------------  --------------  ------- ------- ------------------                        ---------------------
00003.MPLS                                                      MPEG-2  1:58:31 25 081 030 656  45 786 153 251  28,21   19,56   DTS-HD Hi-Res 5.1 3018Kbps (48kHz/24-bit)

Код:

DISC INFO:

Disc Title:     The Silence of the Lambs
Disc Size:      45 786 153 251 bytes
Protection:     BD+
BD-Java:        Yes
BDInfo:         0.5.8

PLAYLIST REPORT:

Name:                   00003.MPLS
Length:                 1:58:31.604 (h:m:s.ms)
Size:                   25 081 030 656 bytes
Total Bitrate:          28,21 Mbps

(*) Indicates included stream hidden by this playlist.

VIDEO:

Codec                   Bitrate             Description
-----                   -------             -----------
MPEG-2 Video            19557 kbps          1080p / 23,976 fps / 16:9

AUDIO:

Codec                           Language        Bitrate         Description
-----                           --------        -------         -----------
DTS-HD High-Res Audio           English         3018 kbps       5.1 / 48 kHz / 3018 kbps / 24-bit (DTS Core: 5.1 / 48 kHz / 1509 kbps / 24-bit)
Dolby Digital Audio             Hungarian       448 kbps        5.1 / 48 kHz / 448 kbps / DN -4dB
Dolby Digital Audio             Portuguese      640 kbps        5.1 / 48 kHz / 640 kbps / DN -4dB
Dolby Digital Audio             Czech           448 kbps        5.1 / 48 kHz / 448 kbps / DN -4dB
Dolby Digital Audio             Spanish         448 kbps        5.1 / 48 kHz / 448 kbps / DN -4dB
Dolby Digital Audio             Polish          448 kbps        5.1 / 48 kHz / 448 kbps / DN -4dB
DTS Audio                       Russian         768 kbps        5.1 / 48 kHz / 768 kbps / 16-bit
Dolby Digital Audio             Turkish         224 kbps        2.0 / 48 kHz / 224 kbps / DN -4dB / Dolby Surround

SUBTITLES:

Codec                           Language        Bitrate         Description
-----                           --------        -------         -----------
Presentation Graphics           English         32,027 kbps
Presentation Graphics           Hungarian       27,851 kbps
* Presentation Graphics         Portuguese      30,859 kbps
Presentation Graphics           Czech           30,465 kbps
Presentation Graphics           Spanish         32,215 kbps
Presentation Graphics           Polish          30,719 kbps
Presentation Graphics           Russian         32,037 kbps
Presentation Graphics           Turkish         31,246 kbps
Presentation Graphics           Croatian        29,587 kbps
Presentation Graphics           Estonian        29,081 kbps
Presentation Graphics           Greek           33,525 kbps
Presentation Graphics           Latvian         27,594 kbps
Presentation Graphics           Slovenian       27,708 kbps
Presentation Graphics           Portuguese      33,088 kbps

FILES:

Name            Time In         Length          Size            Total Bitrate
----            -------         ------          ----            -------------
00001.M2TS      0:00:00.000     1:58:31.604     25 081 030 656  28 214

CHAPTERS:

Number          Time In         Length          Avg Video Rate  Max 1-Sec Rate  Max 1-Sec Time  Max 5-Sec Rate  Max 5-Sec Time  Max 10Sec Rate  Max 10Sec Time  Avg Frame Size  Max Frame Size  Max Frame Time
------          -------         ------          --------------  --------------  --------------  --------------  --------------  --------------  --------------  --------------  --------------  --------------
1               0:00:00.000     0:05:16.274     22 947 kbps     44 231 kbps     00:02:07.377    40 552 kbps     00:02:04.582    38 239 kbps     00:02:02.831    119 619 bytes   627 085 bytes   00:01:18.995
2               0:05:16.274     0:02:58.136     17 489 kbps     22 388 kbps     00:07:58.436    19 781 kbps     00:05:35.043    19 635 kbps     00:05:30.038    91 180 bytes    555 791 bytes   00:07:59.270
3               0:08:14.410     0:03:34.172     18 077 kbps     22 851 kbps     00:09:28.484    20 108 kbps     00:09:32.446    19 955 kbps     00:09:27.567    94 244 bytes    537 591 bytes   00:08:18.414
4               0:11:48.582     0:09:50.756     19 068 kbps     42 853 kbps     00:20:46.620    37 042 kbps     00:20:45.869    36 353 kbps     00:20:45.911    99 413 bytes    700 463 bytes   00:20:39.780
5               0:21:39.339     0:05:19.485     19 447 kbps     36 456 kbps     00:25:04.419    29 966 kbps     00:25:00.415    25 544 kbps     00:25:16.223    101 389 bytes   500 151 bytes   00:25:05.212
6               0:26:58.825     0:04:39.654     17 593 kbps     23 697 kbps     00:29:14.335    21 659 kbps     00:29:10.331    21 422 kbps     00:29:05.326    91 722 bytes    571 590 bytes   00:31:27.969
7               0:31:38.479     0:03:21.367     20 291 kbps     33 164 kbps     00:34:14.552    28 672 kbps     00:34:12.050    27 462 kbps     00:34:14.010    105 788 bytes   554 574 bytes   00:34:59.847
8               0:34:59.847     0:03:39.469     20 903 kbps     31 452 kbps     00:36:38.112    25 633 kbps     00:38:34.312    24 035 kbps     00:38:29.307    108 980 bytes   615 880 bytes   00:38:39.025
9               0:38:39.317     0:02:35.071     18 141 kbps     23 881 kbps     00:40:21.168    20 936 kbps     00:40:37.810    20 156 kbps     00:40:32.805    94 578 bytes    457 020 bytes   00:39:30.701
10              0:41:14.388     0:05:26.576     18 001 kbps     32 742 kbps     00:42:56.949    25 688 kbps     00:46:08.182    25 284 kbps     00:46:08.182    93 851 bytes    440 849 bytes   00:41:47.838
11              0:46:40.964     0:03:03.016     20 491 kbps     30 447 kbps     00:47:33.475    27 578 kbps     00:49:38.975    26 354 kbps     00:49:17.913    106 832 bytes   674 606 bytes   00:49:43.980
12              0:49:43.980     0:01:51.736     22 469 kbps     29 370 kbps     00:49:43.980    25 794 kbps     00:50:28.316    25 359 kbps     00:50:23.311    117 143 bytes   615 462 bytes   00:49:46.441
13              0:51:35.717     0:06:09.619     19 972 kbps     34 767 kbps     00:54:38.817    33 580 kbps     00:54:38.817    32 088 kbps     00:54:13.416    104 124 bytes   558 227 bytes   00:54:46.116
14              0:57:45.336     0:01:44.896     20 335 kbps     29 962 kbps     00:58:13.364    26 787 kbps     00:58:05.690    25 488 kbps     00:58:06.357    106 018 bytes   559 073 bytes   00:59:19.722
15              0:59:30.233     0:01:39.641     18 389 kbps     24 816 kbps     00:59:51.296    21 846 kbps     01:00:49.896    21 266 kbps     01:00:49.896    95 872 bytes    559 735 bytes   01:00:31.169
16              1:01:09.874     0:04:47.245     20 191 kbps     38 475 kbps     01:01:16.172    37 626 kbps     01:01:16.172    36 375 kbps     01:01:11.167    105 268 bytes   583 062 bytes   01:05:57.119
17              1:05:57.119     0:08:17.079     18 916 kbps     28 468 kbps     01:14:13.198    24 006 kbps     01:14:09.194    23 843 kbps     01:14:04.189    98 621 bytes    594 649 bytes   01:06:00.122
18              1:14:14.199     0:04:10.166     20 755 kbps     31 846 kbps     01:16:48.478    27 054 kbps     01:16:48.437    25 487 kbps     01:16:43.140    108 208 bytes   684 063 bytes   01:14:35.137
19              1:18:24.366     0:02:47.250     19 034 kbps     29 146 kbps     01:20:22.526    22 407 kbps     01:20:19.481    21 167 kbps     01:20:20.774    99 232 bytes    616 930 bytes   01:19:04.614
20              1:21:11.616     0:03:56.819     19 495 kbps     27 283 kbps     01:24:39.991    23 783 kbps     01:21:34.639    23 263 kbps     01:21:32.220    101 639 bytes   610 346 bytes   01:24:37.322
21              1:25:08.436     0:02:07.585     19 132 kbps     28 636 kbps     01:25:37.715    23 254 kbps     01:25:37.298    21 498 kbps     01:25:36.047    99 747 bytes    670 446 bytes   01:26:20.175
22              1:27:16.022     0:06:00.651     19 947 kbps     28 184 kbps     01:27:51.599    25 180 kbps     01:27:18.274    23 542 kbps     01:27:45.885    103 996 bytes   751 896 bytes   01:27:51.641
23              1:33:16.674     0:03:24.370     20 392 kbps     31 061 kbps     01:35:29.557    26 343 kbps     01:35:52.329    23 527 kbps     01:35:21.048    106 315 bytes   662 616 bytes   01:36:26.155
24              1:36:41.045     0:00:53.678     17 550 kbps     22 303 kbps     01:36:42.421    19 058 kbps     01:37:29.718    18 535 kbps     01:37:24.713    91 498 bytes    557 506 bytes   01:37:30.261
25              1:37:34.723     0:02:22.392     18 548 kbps     26 316 kbps     01:38:07.923    21 345 kbps     01:38:07.798    20 091 kbps     01:39:11.570    96 699 bytes    699 568 bytes   01:38:01.917
26              1:39:57.116     0:03:20.366     18 391 kbps     26 937 kbps     01:41:35.172    21 426 kbps     01:42:20.759    20 103 kbps     01:42:17.923    95 882 bytes    743 668 bytes   01:41:23.368
27              1:43:17.482     0:07:47.175     20 016 kbps     37 738 kbps     01:45:26.695    34 835 kbps     01:45:25.569    33 846 kbps     01:45:24.443    104 354 bytes   704 819 bytes   01:49:53.253
28              1:51:04.658     0:07:26.946     19 797 kbps     32 568 kbps     01:58:03.951    31 098 kbps     01:58:02.533    29 461 kbps     01:57:58.905    103 224 bytes   393 092 bytes   01:58:05.703

STREAM DIAGNOSTICS:

File            PID             Type            Codec           Language                Seconds                 Bitrate                 Bytes           Packets
----            ---             ----            -----           --------                --------------          --------------          -------------   -----
00001.M2TS      4113 (0x1011)   0x02            MPEG-2                                  7111,438                19 557                  17 385 127 185  94 583 573
00001.M2TS      4352 (0x1100)   0x85            DTS-HD HR       eng (English)           7111,438                3 018                   2 682 853 112   16 001 112
00001.M2TS      4353 (0x1101)   0x81            AC3             hun (Hungarian)         7111,438                448                     398 250 496     2 222 380
00001.M2TS      4354 (0x1102)   0x81            AC3             por (Portuguese)        7111,438                640                     568 929 280     3 333 570
00001.M2TS      4355 (0x1103)   0x81            AC3             ces (Czech)             7111,438                448                     398 250 496     2 222 380
00001.M2TS      4356 (0x1104)   0x81            AC3             spa (Spanish)           7111,438                448                     398 250 496     2 222 380
00001.M2TS      4357 (0x1105)   0x81            AC3             pol (Polish)            7111,438                448                     398 250 496     2 222 380
00001.M2TS      4358 (0x1106)   0x82            DTS             rus (Russian)           7111,438                768                     682 714 112     4 000 278
00001.M2TS      4359 (0x1107)   0x81            AC3             tur (Turkish)           7111,438                224                     199 125 248     1 111 190
00001.M2TS      4608 (0x1200)   0x90            PGS             eng (English)           7111,438                32                      28 470 299      163 552
00001.M2TS      4609 (0x1201)   0x90            PGS             hun (Hungarian)         7111,438                28                      24 758 131      143 544
00001.M2TS      4610 (0x1202)   0x90            PGS             por (Portuguese)        7111,438                31                      27 432 226      158 125
00001.M2TS      4611 (0x1203)   0x90            PGS             ces (Czech)             7111,438                30                      27 082 055      156 210
00001.M2TS      4612 (0x1204)   0x90            PGS             spa (Spanish)           7111,438                32                      28 637 306      164 065
00001.M2TS      4613 (0x1205)   0x90            PGS             pol (Polish)            7111,438                31                      27 307 919      157 307
00001.M2TS      4614 (0x1206)   0x90            PGS             rus (Russian)           7111,438                32                      28 479 476      163 858
00001.M2TS      4615 (0x1207)   0x90            PGS             tur (Turkish)           7111,438                31                      27 775 891      159 974
00001.M2TS      4616 (0x1208)   0x90            PGS             hrv (Croatian)          7111,438                30                      26 301 770      151 978
00001.M2TS      4617 (0x1209)   0x90            PGS             est (Estonian)          7111,438                29                      25 851 903      149 532
00001.M2TS      4618 (0x120A)   0x90            PGS             ell (Greek)             7111,438                34                      29 802 093      171 013
00001.M2TS      4619 (0x120B)   0x90            PGS             lav (Latvian)           7111,438                28                      24 529 386      142 370
00001.M2TS      4620 (0x120C)   0x90            PGS             slv (Slovenian)         7111,438                28                      24 631 424      142 908
00001.M2TS      4621 (0x120D)   0x90            PGS             por (Portuguese)        7111,438                33                      29 413 572      168 860

<---- END FORUMS PASTE ---->

QUICK SUMMARY:

Disc Title: The Silence of the Lambs
Disc Size: 45 786 153 251 bytes
Protection: BD+
BD-Java: Yes
Playlist: 00003.MPLS
Size: 25 081 030 656 bytes
Length: 1:58:31.604
Total Bitrate: 28,21 Mbps
Video: MPEG-2 Video / 19557 kbps / 1080p / 23,976 fps / 16:9
Audio: English / DTS-HD High-Res Audio / 5.1 / 48 kHz / 3018 kbps / 24-bit (DTS Core: 5.1 / 48 kHz / 1509 kbps / 24-bit)
Audio: Hungarian / Dolby Digital Audio / 5.1 / 48 kHz / 448 kbps / DN -4dB
Audio: Portuguese / Dolby Digital Audio / 5.1 / 48 kHz / 640 kbps / DN -4dB
Audio: Czech / Dolby Digital Audio / 5.1 / 48 kHz / 448 kbps / DN -4dB
Audio: Spanish / Dolby Digital Audio / 5.1 / 48 kHz / 448 kbps / DN -4dB
Audio: Polish / Dolby Digital Audio / 5.1 / 48 kHz / 448 kbps / DN -4dB
Audio: Russian / DTS Audio / 5.1 / 48 kHz / 768 kbps / 16-bit
Audio: Turkish / Dolby Digital Audio / 2.0 / 48 kHz / 224 kbps / DN -4dB / Dolby Surround
Subtitle: English / 32,027 kbps
Subtitle: Hungarian / 27,851 kbps
* Subtitle: Portuguese / 30,859 kbps
Subtitle: Czech / 30,465 kbps
Subtitle: Spanish / 32,215 kbps
Subtitle: Polish / 30,719 kbps
Subtitle: Russian / 32,037 kbps
Subtitle: Turkish / 31,246 kbps
Subtitle: Croatian / 29,587 kbps
Subtitle: Estonian / 29,081 kbps
Subtitle: Greek / 33,525 kbps
Subtitle: Latvian / 27,594 kbps
Subtitle: Slovenian / 27,708 kbps
Subtitle: Portuguese / 33,088 kbps
piratbit.pw



Скачать Молчание ягнят через торрент http://pic.kartinco.top/images/2011/z7whff1kek.jpg Скачать фильм Молчание ягнят через торрент бесплантно в хорошем качестве Описание: Психопат похищает и убивает молодых женщин по всему Среднему Западу Америки. ФБР, уверенное в том, что все преступления совершены ... 10 10 1
Info! Золотая раздача, скачанное не засчитывается.
Торрент: Зарегистрирован [2012-02-24 22:43] · скачан: 11 раз
Статус: √ проверено
Размер: 42.64 GB
Как cкачать? Как скачать Молчание ягнят через торрент | qTorrent

% Раздел Тема Автор DL S | L
Ultra HD (UHD: 2K, 4K, 8K) — видео сверхвысокой чёткости [ 38.14 GB ] Молчание ягнят / The Silence of the Lambs [1991 UHD WEBRip 2160p] DUB+2xMVO+3xAVO bober100 Скачать
1 | 0
Фильмы (HD 720p, 1080p) (48-60 fps) [ 9.12 GB ] Молчание ягнят / The Silence of the Lambs [1990 BDRip 720p ] 60fps от mimok mimok Скачать
1 | 0
Порно фильмы с сюжетом [ 1.36 GB ] Молчание ягнят. Официальная пародия / Official Silence Of The Lambs Parody [2011. All Sex Feature Horror Parodies. DVDRip]. FOXI Скачать
1 | 0
Фильмы [HD 720p, 1080p] (Хороший звук DUB, MVO) [ 15.76 GB ] Молчание ягнят / The Silence of the Lambs [1991 BDRip ] shuller Скачать
1 | 0
Классика зарубежного кино [ 1.79 GB ] Молчание ягнят / The Silence of the Lambs [1991 BDRip] 4xMVO + 3хDVO + 4хAVO -=Cherry=- Скачать
1 | 0
Классика зарубежного кино [ 1.46 GB ] Молчание ягнят / The Silence of the Lambs [1991 HDRip] spaMER1992 Скачать
1 | 0
Фильмы (DVD фильмы) [ 7.68 GB ] Молчание ягнят / The silence of the lambs [1991 DVD9 Пиратка] Steptoorew Скачать
1 | 0

28-11-2019 20:33  

Отключить всю рекламу на сайте

    Дорогой пользователь! Огромная просьба, поблагодарите релизера, оцените раздачу и оставьте свои комментарий, если Вы скачали Молчание ягнят через торрент бесплатно! Внесите свою лепту в развитие PiratBit!
    Комментировать посты могут только пользователи прошедшие не сложную регистрацию
    Показать сообщения:    

    Молчание ягнят через торрент
    Скачать бесплатно Молчание ягнят
    Молчание ягнят скачать торрент
    Молчание ягнят смотреть онлайн
    Cкачать фильм Молчание ягнят бесплатно
    Молчание ягнят скачать торрент в хорошем качестве
    Молчание ягнят смотреть онлайн бесплатно в хорошем качестве


    Вы не можете начинать темы
    Вы не можете отвечать на сообщения
    Вы не можете редактировать свои сообщения
    Вы не можете удалять свои сообщения
    Вы не можете голосовать в опросах
    Вы не можете прикреплять файлы к сообщениям
    Вы можете скачивать файлы