MEGA SALE -50% FORZA HORIZON 4 ULTIMATE+ВСЕ DLC+ОНЛАЙН всего за 599р. 299 руб. (супер цена). Внимание количество ограничено!!!

iTunes

1+1

iTunes

мы

iTunes

1

iTunes

Чернобыль

iTunes

Ральф против интернета

Лицензия

ПШазам

Лицензия

Игра престолов

Лицензия

30
pack

ВАЖНО

!!Акция!!

Alien_RageХит недели

RePack

Resident Evil 21

ИГРА 18+

pack

RePack

Metro:Exodus

!!Акция!!

Alien_Rage

RePack

fifa19

RePack

Assassins Creed: Odyssey

RePack

NEED FOR SPEED™ PAYBACK

3 сезон

9 сезон

Бесстыжие 9 сезон

Все сериалы

все сериалы на PB.wtf

RePack

FAR CRY 5
Ребята, катастрофически не хватает 7730р. для оплаты серверов за АВГУСТ (всвязи с блокировками трафик упал в 3 раза), 1-2р., выручайте.
  

Олигарх / A New Russian (Павел Лунгин) [2002 г., триллер, драма, криминал, DVDRip] piratbit.pw

Олигарх через торрент piratbit.pw

Размер: 1.43 GB | Добавлен: 9 лет 3 мес. назад | Торрент скачан:168 раз
Скачать  

06-01-2010 16:44 Олигарх Скачать торрент  

Олигарх / A New Russian
Год выпуска: 2002
Страна: Германия, Россия, Франция
Жанр: триллер, драма, криминал
Продолжительность: 128 мин.
Перевод: не требуется
Режиссер: Павел Лунгин
Продюссер: Катрин Дассэрт, Владимир Григорьев, Сергей Сельянов
Сценарий: Александр Бородянский, Юлий Дубов, Павел Лунгин
Бюджет: $5 000 000
Премьера в мире: 2 августа 2002

В ролях: Владимир Машков, Мария Миронова, Андрей Краско, Леван Учанейшвили, Михаил Вассербаум, Сергей Юшкевич, Александр Самойленко, Наталья Коляканова, Александр Балуев, Владимир Стеклов
Описание: История жизни. Россия. Последние два десятилетия. Время перемен, необратимо изменившее страну и всех нас. Академики обнищали, младшие научные сотрудники обрели невероятные богатства и Влacть, стали всемогущими олигархамиИстория любви. Он был готов положить весь мир к ее ногам. И мог себе это позволить История денег. Деньги заработать можно. Даже большие деньги. Но как потом остаться в живых?...История успеха. За все надо платить. История большого бизнеса в России  это история людей, которые всего достигли. Но они дорого заплатили за свой успех. Кто-то  дружбой, кто-то  любовью, кто-то  собственной жизньюОсновные события и главные герои фильма не вымышлены. Имена изменены. Некоторые все еще живы
Качество: DVDRip-AVC
Формат: Matroska
Видео кодек: AVC
Аудио кодек: AC3
Видео: MPEG4 Video (H264) 716x412 (2864:1545) 25.00fps
Аудио: Dolby AC3 48000Hz 6ch
Субтитры: English; UTF-8; srt eng (отключаемые)







General
Complete name : D:\Фильмы\A New Russian (2002)\new.russian.2002.DVDRip.PAL.x264.DD.tRuAVC.mkv
Format : Matroska
File size : 1.43 GiB
Duration : 2h 2mn
Overall bit rate : 1 669 Kbps
Movie name : A New Russian (2002)
Encoded date : UTC 2009-12-20 16:44:25
Writing application : mkvmerge v3.0.0 ('Hang up your Hang-Ups') built on Dec 12 2009 15:20:35
Writing library : libebml v0.7.9 + libmatroska v0.8.1
Cover : Yes

Video
ID : 1
Format : AVC
Format/Info : Advanced Video Codec
Format profile : High@L4.1
Format settings, CABAC : Yes
Format settings, ReFrames : 8 frames
Muxing mode : Container profile=Unknown@4.1
Codec ID : V_MPEG4/ISO/AVC
Duration : 2h 2mn
Bit rate : 1 188 Kbps
Nominal bit rate : 1 219 Kbps
Width : 716 pixels
Height : 412 pixels
Display aspect ratio : 1.854
Frame rate : 25.000 fps
Resolution : 24 bits
Colorimetry : 4:2:0
Scan type : Progressive
Bits/(Pixel*Frame) : 0.161
Stream size : 1.02 GiB (71%)
Title : x264: 716x412@25fps, SAR 16:15 ~1218.88 kb/s
Writing library : x264 core 80 r1373kMod 4322f63
Encoding settings : cabac=1 / ref=8 / deblock=1:-3:-1 / analyse=0x3:0x113 / me=umh / subme=10 / psy=1 / psy_rd=1.0:0.2 / mixed_ref=1 / me_range=18 / chroma_me=1 / trellis=2 / 8x8dct=1 / cqm=0 / deadzone=21,11 / fast_pskip=1 / chroma_qp_offset=-3 / threads=1 / sliced_threads=0 / nr=0 / decimate=1 / mbaff=0 / constrained_intra=0 / bframes=5 / b_pyramid=2 / b_adapt=2 / b_bias=0 / direct=3 / wpredb=1 / wpredp=2 / keyint=250 / keyint_min=25 / scenecut=40 / rc_lookahead=60 / rc=2pass / mbtree=1 / bitrate=1219 / ratetol=1.0 / qcomp=0.72 / qpmin=10 / qpmax=51 / qpstep=4 / cplxblur=20.0 / qblur=0.5 / vbv_maxrate=50000 / vbv_bufsize=62500 / ip_ratio=1.40 / aq=1:1.00
Language : Russian
matrix_coefficients : BT.470-6 System B, BT.470-6 System G, BT.601-6 625, BT.1358 625, BT.1700 625 PAL, BT.1700 625 SECAM, IEC 61966-2-4 601

Audio
ID : 2
Format : AC-3
Format/Info : Audio Coding 3
Codec ID : A_AC3
Duration : 2h 2mn
Bit rate mode : Constant
Bit rate : 448 Kbps
Channel(s) : 6 channels
Channel positions : Front: L C R, Surround: L R, LFE
Sampling rate : 48.0 KHz
Stream size : 393 MiB (27%)
Title : ac3 VTS_04_1 T80 3_2ch 448Kbps DELAY 0ms rus
Language : Russian

Text
ID : 3
Format : UTF-8
Codec ID : S_TEXT/UTF8
Codec ID/Info : UTF-8 Plain Text
Title : srt eng
Language : English

Menu
00:00:00.000 : en:Chapter 1
00:00:11.520 : en:Chapter 2
00:05:23.040 : en:Chapter 3
00:10:04.320 : en:Chapter 4
00:16:37.680 : en:Chapter 5
00:24:11.520 : en:Chapter 6
00:31:52.800 : en:Chapter 7
00:34:09.000 : en:Chapter 8
00:43:00.360 : en:Chapter 9
00:52:51.360 : en:Chapter 10
00:59:03.840 : en:Chapter 11
01:05:42.240 : en:Chapter 12
01:13:45.480 : en:Chapter 13
01:22:27.000 : en:Chapter 14
01:32:28.800 : en:Chapter 15
01:38:20.280 : en:Chapter 16
01:44:46.080 : en:Chapter 17
01:50:46.080 : en:Chapter 18
01:56:05.520 : en:Chapter 19

piratbit.pw



Скачать Олигарх через торрент http://i048.radikal.ru/1001/ff/7b19609693d5.jpg Скачать фильм Олигарх через торрент бесплантно в хорошем качестве Описание: История жизни. Россия. Последние два десятилетия. Время перемен, необратимо изменившее страну и всех нас. Академики обнищали, ... 10 10 3
Info! Золотая раздача, скачанное не засчитывается.
Торрент: Зарегистрирован [2010-06-12 16:25] · скачан: 168 раз
Статус: √ проверено
Размер: 1.43 GB
Как cкачать? Как скачать Олигарх через торрент | qTorrent


>> Регистрируемся здесь <<






Отзывы и комментарии о схеме читаем и пишем здесь: ---> Отзывы и комментарии о схеме

Новые благодарочки в телеграм довольных пользователей:
скриншот   скриншот   скриншот   скриншот   скриншот

04-04-2013 22:14 Олигарх Скачать торрент  

лучший фильм...на все времена...дань Борису Абрамовичу земля ему пухом...piratbit.pw



    Дорогой пользователь! Огромная просьба, поблагодарите релизера, оцените раздачу и оставьте свои комментарий, если Вы скачали Олигарх через торрент бесплатно! Внесите свою лепту в развитие PiratBit!
    Комментировать посты могут только пользователи прошедшие не сложную регистрацию
    Показать сообщения:    

    Олигарх через торрент
    Скачать бесплатно Олигарх
    Олигарх скачать торрент
    Олигарх смотреть онлайн
    Cкачать фильм Олигарх бесплатно
    Олигарх скачать торрент в хорошем качестве
    Олигарх смотреть онлайн бесплатно в хорошем качестве


    Вы не можете начинать темы
    Вы не можете отвечать на сообщения
    Вы не можете редактировать свои сообщения
    Вы не можете удалять свои сообщения
    Вы не можете голосовать в опросах
    Вы не можете прикреплять файлы к сообщениям
    Вы можете скачивать файлы