1 сезон

1 сезон

iTunes

1

iTunes

Кинопоиск HD

iTunes

13

1 сезон

RePack

30

Deluxe

ВАЖНО

ИГРА 18+

pack

RePack

MK11
pack

Легкие деньги

RePack

jed

RePack

fifa19

RePack

RDR2

RePack

NEED FOR SPEED™ PAYBACK

4 сезон

9 сезон

Бесстыжие 9 сезон

Все сериалы

все сериалы на PB.wtf

RePack

FAR CRY 5
  
Magnet ссылка

Касс / Cass (Джон С. Бейрд) [2008 г., драма, криминал, биография, HDRip] piratbit.pw

Касс через торрент piratbit.pw

Размер: 1.45 GB | Добавлен: 9 лет 2 мес. назад | Торрент скачан:197 раз
Скачать  

11-02-2012 18:03 Касс Скачать торрент  

Касс / Cass


Год выпуска: 2008
Страна: Великобритания
Жанр: драма, криминал, биография
Продолжительность: 01:48:32
Перевод: Одноголосый закадровый |Zamez|

Режиссер: Джон С. Бейрд
Продюссер: Стефан Хэллер, Джон С. Бейрд, Уилл Кларк
Сценарий: Джон С. Бейрд, Cass Pennant, Майк Ридли

Бюджет: £1 000 000

Мировой рейтинг IMDB 6.40 (2 084)


В ролях: Нонсо Анози, Натали Пресс, Лео Грегори, Гэвин Брокер, Тигги Аллен, Хелен Андерсон, Ник Бартлетт, Линда Бэссет, Джеффри Биверс, Джек Бенс

Описание: Невероятно правдивая история о том, как бездомный сирота из Ямайки, усыновлённый пожилой белой парой и выросший в обеспеченном белом районе Лондона, стал одним из самых опасных и уважаемых людей в Британии. Касс рос во времена реформ и повсеместного насаждения политкорректности и толерантности и был вынужден ежедневно сталкиваться с расизмом и унижениями на расовой почве, пока однажды годами сдерживаемый гнев не вылился из него наружу. Он добился уважения, которого никогда не имел, через борьбу и насилие и окунулся в эту стихию с головой. Его образ жизни чуть не довёл его до смерти, когда в него трижды стреляли. Его внутренняя сила помогла ему выжить, но поставила перед дилеммой: либо мстить, как учила его улица, либо завязать со своим прошлым. Это история его жизни...

Качество: HDRip
Формат: AVI
Видео кодек: XviD
Аудио кодек: AC3
Видео: 704x400 (1.76:1), 23.976 fps, XviD build 64 ~1455 kbps avg, 0.22 bit/pixel
Аудио#1: 48 kHz, AC3 Dolby Digital, 3/2 (L,C,R,l,r) + LFE ch, ~448 kbps




General
Complete name : C:\Users\Videos\Cass.1.45.avi
Format : AVI
Format/Info : Audio Video Interleave
File size : 1.45 GiB
Duration : 1h 48mn
Overall bit rate : 1 913 Kbps
Writing application : VirtualDubMod 1.5.10.2 (build 2540/release)
Writing library : VirtualDubMod build 2540/release

Video
ID : 0
Format : MPEG-4 Visual
Format profile : Advanced Simple@L5
Format settings, BVOP : 1
Format settings, QPel : No
Format settings, GMC : No warppoints
Format settings, Matrix : Custom
Codec ID : XVID
Codec ID/Hint : XviD
Duration : 1h 48mn
Bit rate : 1 456 Kbps
Width : 704 pixels
Height : 400 pixels
Display aspect ratio : 16:9
Frame rate : 23.976 fps
Color space : YUV
Chroma subsampling : 4:2:0
Bit depth : 8 bits
Scan type : Progressive
Compression mode : Lossy
Bits/(Pixel*Frame) : 0.216
Stream size : 1.10 GiB (76%)
Writing library : XviD 64

Audio
ID : 1
Format : AC-3
Format/Info : Audio Coding 3
Mode extension : CM (complete main)
Codec ID : 2000
Duration : 1h 48mn
Bit rate mode : Constant
Bit rate : 448 Kbps
Channel(s) : 6 channels
Channel positions : Front: L C R, Side: L R, LFE
Sampling rate : 48.0 KHz
Bit depth : 16 bits
Compression mode : Lossy
Stream size : 348 MiB (23%)
Alignment : Split accross interleaves
Interleave, duration : 42 ms (1.00 video frame)
Interleave, preload duration : 500 ms


piratbit.pw



Скачать Касс через торрент http://i31.fastpic.ru/big/2012/0124/74/af9e3a66c8dcc912f942be7faf655474.jpg Скачать фильм Касс через торрент бесплантно в хорошем качестве Описание: Невероятно правдивая история о том, как бездомный сирота из Ямайки, усыновлённый пожилой белой парой и выросший в обеспеченном ... 10 10 1
Info! Золотая раздача, скачанное не засчитывается.
Торрент: Зарегистрирован [2012-02-11 18:03] · скачан: 197 раз
Статус: √ проверено
Размер: 1.45 GB
Как cкачать? Как скачать Касс через торрент | UTorrent

% Раздел Тема Автор DL S | L
Фильмы [HD 720p, 1080p] (Хороший звук DUB, MVO) [ 4.9 GB ] Мечта Кассандры / Cassandra's Dream [2007 BDRip 720p by msltel] MVO AVO msltel Скачать
1 | 0
Гонзо [ 2.09 GB ] Касси Янг Извращенка / Cassy Young Pervers [2019 Anal DP Threesome Group All Sex Blowjob Gonzo DVDRip] Pir@tya2010 Скачать
1 | 0
Фильмы с авторской озвучкой [ 2.67 GB ] Спинорог Пикассо / Picasso Trigger [1988 BDRip-AVC Авторский ] dumbia Скачать
1 | 0
Фильмы (WEB-DL 720p, 1080p) [ 7.08 GB ] Глория / Gloria [1980 WEB-DL 1080p от KORSAR] [MVO] filbi1976 Скачать
1 | 0
Космос [ 720 MB ] Прощай Кассини. Здравствуй Сатурн! / Goodbye Cassini Hello Saturn [2017 Документальный SATRip] Armstrong Скачать
1 | 0
Фильмы (Blu-ray, BD-Remux, HDDVD) [ 22.9 GB ] Мечта Кассандры / Cassandra's Dream [2007 BDRemux от TeamHD & NNNB] MVO + AVO + Original + Sub _denis_100 Скачать
1 | 0
Фильмы [HD 720p, 1080p] (Хороший звук DUB, MVO) [ 6.22 GB ] Перевал Кассандры / The Cassandra Crossing [1976 BDRip 720p by msltel] 3 x MVO DVO msltel Скачать
1 | 0

28-11-2019 20:33  

Отключить всю рекламу на сайте

    Дорогой пользователь! Огромная просьба, поблагодарите релизера, оцените раздачу и оставьте свои комментарий, если Вы скачали Касс через торрент бесплатно! Внесите свою лепту в развитие PiratBit!
    Комментировать посты могут только пользователи прошедшие не сложную регистрацию
    Показать сообщения:    

    Касс через торрент
    Скачать бесплатно Касс
    Касс скачать торрент
    Касс смотреть онлайн
    Cкачать фильм Касс бесплатно
    Касс скачать торрент в хорошем качестве
    Касс смотреть онлайн бесплатно в хорошем качестве


    Вы не можете начинать темы
    Вы не можете отвечать на сообщения
    Вы не можете редактировать свои сообщения
    Вы не можете удалять свои сообщения
    Вы не можете голосовать в опросах
    Вы не можете прикреплять файлы к сообщениям
    Вы можете скачивать файлы