новый адрес
Ссылка на приватное зеркало всего за 1$. Внимание количество ограничено!!!

iTunes

1+1

iTunes

мы

WEB-DL

1

iTunes

Чернобыль

iTunes

Ральф против интернета

Лицензия

ПШазам

Лицензия

Оно 2

Лицензия

30
pack

Вам бонус

ВАЖНО

!!Акция!!

Alien_RageХит недели

RePack

Resident Evil 21

ИГРА 18+

pack

RePack

jed

!!Акция!!

Alien_Rage

RePack

fifa19

RePack

Assassins Creed: Odyssey

RePack

NEED FOR SPEED™ PAYBACK

3 сезон

9 сезон

Бесстыжие 9 сезон

Все сериалы

все сериалы на PB.wtf

RePack

FAR CRY 5
Ребята, катастрофически не хватает 1900р. для оплаты серверов за Октябрь (всвязи с блокировками трафик упал в 3 раза), 1-2р., выручайте.
  

Золото Маккенны / Mackenna's Gold (Джерри Ли Томпсон) [1969 г., Вестерн, приключения, DVDRip, лицензия] piratbit.pw

Золото Маккенны через торрент piratbit.pw

Размер: 1.36 GB | Добавлен: 7 лет 11 мес. назад | Торрент скачан:102 раза
Скачать  

01-01-2012 21:34 Золото Маккенны Скачать торрент  

Золото Маккенны / Mackenna's Gold

Год выпуска: 1969
Страна: США / Columbia Pictures
Жанр: Вестерн, приключения
Продолжительность: 02:02:35
Перевод: Профессиональный (полное дублирование)
Тип релиза: Лицензия

Режиссер: Джерри Ли Томпсон
Продюссер: Карл Формен, Дмитрий Тёмкин
Сценарий: Карл Формен, Хек Аллен

Бюджет: $7 000 000
Премьера в мире: 18 марта 1969

В ролях: Омар Шариф, Грегори Пек, Ли Дж. Кобб, Кинен Уинн, Энтони Куэйл, Телли Савалас, Баргесс Мередит, Эдвард Дж. Робинсон, Эли Уоллаш, Камилла Спарв, Раймонд Мэсси, Тед Кассиди, Джули Ньюмар

Описание: Благодаря случайным обстоятельствам шериф Маккенна узнает о том, где спрятано золото древнего индейского племени. В качестве «живой карты» он становится заложником бандита Колорадо, который мечтает найти каньон «дьявольское наваждение»… К группе головорезов примыкают все новые и новые охотники за богатством, но далеко не всем суждено будет добраться до цели. Тем более вернуться живыми, ведь на пути к заветной цели их ждет неизвестность…

Похожие раздачи: Золото Маккенны

Доп. информация:
«Золото Маккенны» в СССР:
В 1973 году картина демонстрировалась на внеконкурсном показе VIII Московского международного кинофестиваля. А в июле-августе 1974 года вышла на экраны СССР, став первым американским вестерном в советском прокате со времени Великолепной семерки. Помимо обычного дубляжа, выполненного на студии Мосфильм, прокатный вариант включал в себя и новую версию (русский текст Леонида Дербенева) песни Old Turkey Buzzard, которую исполнил Валерий Ободзинский. В дубляже картины принимали участие актеры:
Феликс Яворский (закадровый текст)
Владимир Дружников (Маккенна)
Анатолий Кузнецов (Колорадо)
Константин Тыртов (Адамс)
Антонина Кончакова (Инга)
Анатолий Соловьев (Тиббс)
Алексей Алексеев (Бейкер)
Геннадий Юдин (немолодой англичанин)
Григорий Шпигель (владелец магазина)
Сергей Курилов (редактор),
Ян Беленький (проповедник)

Релиз на видео:
Релиз данного фильма состоялся на VHS в США в 1977 году. В СССР с 1980-х годов издавались с советским дубляжем и с одноголосыми закадровыми переводами М. Н. Иванова, А. Ю. Гаврилова, Л. В. Володарского и других... В России они выпускались в системе PAL, с 1996 года он выпущен на VHS изданием West Video. В 2002 году он выпущен на DVD в России с профессиональным одноголосым переводом Юрия Живова на канале 5.1 Surround.

Места съемок:
Натурные съемки проводились в Аризоне, в национальных парках Каньон-де-Шелли и Глен-Каньон

[url=http://www. СПАМ
\\Home\торрент загрузки\Zoloto.Makkeny.1969.XviD.DVDRip.avi
General
Complete name : \\Home\торрент загрузки\Zoloto.Makkeny.1969.XviD.DVDRip.avi
Format : AVI
Format/Info : Audio Video Interleave
File size : 1.36 GiB
Duration : 2h 2mn
Overall bit rate : 1 593 Kbps
Writing application : VirtualDubMod 1.5.4.1 (build 2178/release)
Writing library : VirtualDubMod build 2178/release
Video #0
ID : 0
Format : MPEG-4 Visual
Format profile : Advanced Simple@L5
Format settings, BVOP : 1
Format settings, QPel : No
Format settings, GMC : No warppoints
Format settings, Matrix : Custom
Codec ID : XVID
Codec ID/Hint : XviD
Duration : 2h 2mn
Bit rate : 1 394 Kbps
Width : 720 pixels
Height : 304 pixels
Display aspect ratio : 2.35:1
Frame rate : 25.000 fps
Color space : YUV
Chroma subsampling : 4:2:0
Bit depth : 8 bits
Scan type : Progressive
Compression mode : Lossy
Bits/(Pixel*Frame) : 0.255
Stream size : 1.19 GiB (88%)
Writing library : XviD 1.2.0.dev47 (UTC 2006-11-01)
Audio #1
ID : 1
Format : AC-3
Format/Info : Audio Coding 3
Mode extension : CM (complete main)
Codec ID : 2000
Duration : 2h 2mn
Bit rate mode : Constant
Bit rate : 192 Kbps
Channel(s) : 2 channels
Channel positions : Front: L R
Sampling rate : 48.0 KHz
Bit depth : 16 bits
Compression mode : Lossy
Stream size : 168 MiB (12%)
Alignment : Split accross interleaves
Interleave, duration : 96 ms (2.40 video frames)
Interleave, preload duration : 96 ms
Language : Russian
Качество: DVDRip
Формат: AVI
Видео кодек: XviD
Аудио кодек: AC3
Видео: XviD, 1396 Кбит/с, 720x304
Аудио: AC3 , 2 ch, 192 Кбит/с




piratbit.pw



Скачать Золото Маккенны через торрент http://s55.radikal.ru/i149/1201/65/29ab5d7f1cde.jpg Скачать фильм Золото Маккенны через торрент бесплантно в хорошем качестве Описание: Благодаря случайным обстоятельствам шериф Маккенна узнает о том, где спрятано золото древнего индейского племени. В качестве ... 10 10 1
Info! Золотая раздача, скачанное не засчитывается.
Торрент: Зарегистрирован [2012-01-01 21:34] · скачан: 102 раз
Статус: √ проверено
Размер: 1.36 GB
Как cкачать? Как скачать Золото Маккенны через торрент | qTorrent



Последний раз редактировалось: petronik1 (2012-01-02 11:10), всего редактировалось 2 раз(а)

28-11-2019 20:33  

Отключить всю рекламу на сайте

02-01-2012 09:53 Золото Маккенны Скачать торрент  

petronik1
Скриншоты Ваши 640px × 270px не отвечают заявленному разрешению.piratbit.pw



25-03-2012 05:44 Золото Маккенны Скачать торрент  

Отличный фильм! Странно, что скачан всего 35 раз... :wanted:piratbit.pw



    Дорогой пользователь! Огромная просьба, поблагодарите релизера, оцените раздачу и оставьте свои комментарий, если Вы скачали Золото Маккенны через торрент бесплатно! Внесите свою лепту в развитие PiratBit!
    Комментировать посты могут только пользователи прошедшие не сложную регистрацию
    Показать сообщения:    

    Золото Маккенны через торрент
    Скачать бесплатно Золото Маккенны
    Золото Маккенны скачать торрент
    Золото Маккенны смотреть онлайн
    Cкачать фильм Золото Маккенны бесплатно
    Золото Маккенны скачать торрент в хорошем качестве
    Золото Маккенны смотреть онлайн бесплатно в хорошем качестве


    Вы не можете начинать темы
    Вы не можете отвечать на сообщения
    Вы не можете редактировать свои сообщения
    Вы не можете удалять свои сообщения
    Вы не можете голосовать в опросах
    Вы не можете прикреплять файлы к сообщениям
    Вы можете скачивать файлы