1 сезон

1 сезон

iTunes

1

iTunes

Кинопоиск HD

iTunes

13

1 сезон

RePack

30

Deluxe

ВАЖНО

ИГРА 18+

pack

RePack

MK11
pack

Легкие деньги

RePack

jed

RePack

fifa19

RePack

RDR2

RePack

NEED FOR SPEED™ PAYBACK

4 сезон

9 сезон

Бесстыжие 9 сезон

Все сериалы

все сериалы на PB.wtf

RePack

FAR CRY 5
  
Magnet ссылка

Моя дочь - заложница / Моя дочь, мой ангел / Ma Fille, Mon Ange / My Daughter, My Angel (Алексис Дюран-Браулт / Alexis Durand-Brault) [2007, Канада, триллер, DVDRip] 2VO R5 + Original (Fre) + Sub (Rus) piratbit.pw

Моя дочь - заложница через торрент piratbit.pw

Размер: 1.57 GB | Добавлен: 9 лет 4 мес. назад | Торрент скачан:72 раза
Скачать  

31-12-2011 09:58 Моя дочь - заложница Скачать торрент  

Моя дочь - заложница / Ma Fille, Mon Ange Страна: Канада
Жанр: триллер, драма
Год выпуска: 2007
Продолжительность: 01:22:11
Перевод: Профессиональный (двухголосый закадровый) [Лицензия]
Cубтитры: русские
Оригинальная аудиодорожка: французский



Режиссер: Алексис Дюран-Браулт / Alexis Durand-Brault

В ролях: Мишель Коте, Карин Ванасс, Доминик Ледюк, Лоранс Лебёф, Кристиан Беджин, Пьер-Люк Брийян, Серж Уд, Ален Форнье, Лорен Аллер, Николас Кануэль

Описание: Жерман преуспевающий бизнесмен. В его жизни есть абсолютно все для счастья. Красивая жена, умница дочь, учащаяся в университете, хорошая работа, много денег. Но все меняется в один момент, когда он случайно натыкается в интернете на ролик порнофильма с участием его дочери Натали! Понимая, что такое она могла сделать только под дулом пистолета, Жерман тут же бросает все дела и отправляется спасать дочь...




Качество видео: DVDRip
Исходник: DVD5 R5
Формат видео: AVI
Видео: 704x384 (1.83:1), 25 fps, XviD MPEG-4 ~2145 kbps avg, 0.32 bit/pixel
Аудио: 48 kHz, AC3 Dolby Digital, 3/2 (L,C,R,l,r) + LFE ch, ~384 kbps (rus)
Аудио 2: 48 kHz, AC3 Dolby Digital, 2/0 (L,R) ch, ~192 kbps (fre) отдельно
Формат субтитров: softsub (SRT)
Общее
Полное имя : Ma.Fille.Mon.Ange_DVDRip.P.R5.avi
Формат : AVI
Формат/Информация : Audio Video Interleave
Размер файла : 1,46 Гбайт
Продолжительность : 1 ч. 22 м.
Общий поток : 2540 Кбит/сек
Программа кодирования : VirtualDubMod 1.5.10.2 (build 2540/release)
Библиотека кодирования : VirtualDubMod build 2540/release
Видео
Идентификатор : 0
Формат : MPEG-4 Visual
Профиль формата : Advanced Simple@L5
Параметр BVOP формата : 1
Параметр QPel формата : Нет
Параметр GMC формата : Без точки перехода
Параметр матрицы формата : Default (MPEG)
Режим смешивания : Сжатый битовый поток
Идентификатор кодека : XVID
Идентификатор кодека/Подсказка : XviD
Продолжительность : 1 ч. 22 м.
Битрейт : 2146 Кбит/сек
Ширина : 704 пикселя
Высота : 384 пикселя
Соотношение сторон : 16:9
Частота кадров : 25,000 кадров/сек
Цветовое пространство : YUV
Субдискретизация насыщенности : 4:2:0
Битовая глубина : 8 бит
Тип развёртки : Прогрессивная
Метод сжатия : С потерями
Бит/(Пиксели*Кадры) : 0.318
Размер потока : 1,23 Гбайт (84%)
Библиотека кодирования : XviD 64
Аудио
Идентификатор : 1
Формат : AC-3
Формат/Информация : Audio Coding 3
Расширение режима : CM (complete main)
Идентификатор кодека : 2000
Продолжительность : 1 ч. 22 м.
Вид битрейта : Постоянный
Битрейт : 384 Кбит/сек
Каналы : 6 каналов
Расположение каналов : Front: L C R, Side: L R, LFE
Частота : 48,0 КГц
Битовая глубина : 16 бит
Метод сжатия : С потерями
Размер потока : 226 Мбайт (15%)
Выравнивание : Разделение по промежуткам
Продолжительность промежутка : 40 мс. (1,00 видеокадр)
Время предзагрузки промежутка : 500 мс.
piratbit.pw



Скачать Моя дочь - заложница через торрент http://i31.fastpic.ru/big/2011/1231/4e/d816ea845dfb67d9c80590f2398e754e.jpg Скачать фильм Моя дочь - заложница через торрент бесплантно в хорошем качестве Описание: Жерман преуспевающий бизнесмен. В его жизни есть абсолютно все для счастья. Красивая жена, умница дочь, учащаяся в университете, ... 10 10 1
Info! Золотая раздача, скачанное не засчитывается.
Торрент: Зарегистрирован [2011-12-31 09:58] · скачан: 72 раз
Статус: √ проверено
Размер: 1.57 GB
Как cкачать? Как скачать Моя дочь - заложница через торрент | UTorrent

28-11-2019 20:33  

Отключить всю рекламу на сайте

    Дорогой пользователь! Огромная просьба, поблагодарите релизера, оцените раздачу и оставьте свои комментарий, если Вы скачали Моя дочь - заложница через торрент бесплатно! Внесите свою лепту в развитие PiratBit!
    Комментировать посты могут только пользователи прошедшие не сложную регистрацию
    Показать сообщения:    

    Моя дочь - заложница через торрент
    Скачать бесплатно Моя дочь - заложница
    Моя дочь - заложница скачать торрент
    Моя дочь - заложница смотреть онлайн
    Cкачать фильм Моя дочь - заложница бесплатно
    Моя дочь - заложница скачать торрент в хорошем качестве
    Моя дочь - заложница смотреть онлайн бесплатно в хорошем качестве


    Вы не можете начинать темы
    Вы не можете отвечать на сообщения
    Вы не можете редактировать свои сообщения
    Вы не можете удалять свои сообщения
    Вы не можете голосовать в опросах
    Вы не можете прикреплять файлы к сообщениям
    Вы можете скачивать файлы