Marvel's Avengers Deluxe Edition (супер цена) 159р. Внимание количество ограничено!!!

2 сезон

iTunes

iTunes

1

iTunes

iTunes

iTunes

WEBRip

iTunes

30
pack

Новость дня

ВАЖНО

!!Акция!!

Alien_RageХит недели

RePack

Horizon Zero Dawn

ИГРА 18+

pack

RePack

jed

!!Акция!!

Alien_Rage

RePack

fifa19

RePack

Assassins Creed: Odyssey

RePack

NEED FOR SPEED™ PAYBACK

4 сезон

9 сезон

Бесстыжие 9 сезон

Все сериалы

все сериалы на PB.wtf

RePack

FAR CRY 5
  

Золушка (Надежда Кошеверова, Михаил Шапиро) [1947, СССР, мюзикл, фэнтези, мелодрама, комедия, семейный, BDRip 1080p] (Цветная верия, полная реставрация изображения и звука) piratbit.pw

Золушка через торрент piratbit.pw

Размер: 8.21 GB | Добавлен: 8 лет 8 мес. назад | Торрент скачан:98 раз
Скачать  

20-12-2011 17:02 Золушка Скачать торрент  

Золушка
Цветная верcия, полная реставрация изображения и звука
Страна: СССР
Жанр: мюзикл, фэнтези, мелодрама, комедия, семейный
Год выпуска: 1947
Продолжительность: 01:21:50
Перевод: Не требуется
Режиссер: Надежда Кошеверова, Михаил Шапиро
Сценарий:Евгений Шварц
В ролях: Янина Жеймо, Алексей Консовский, Эраст Гарин, Фаина Раневская, Елена Юнгер, Тамара Сезеневская, Василий Меркурьев, Александр Румнев, Варвара Мясникова, Игорь Клименков
Описание: Основа сюжета - старинный сказочный мотив о трудолюбивой Золушке, злой мачехе и ленивых сестрах. Разумеется, Шварцем переработанный и оживленный до уровня комедии, в которой есть и просто юмор, и злая сатира.
До сих пор этот нежный и добрый фильм продолжает радовать и удивлять больших и маленьких. А вы попробуйте не удивиться тому, что к вам в гости приходит волшебница со своим очаровательным пажом и мановением волшебной палочки превращает ваше рубище в бальное платье, а ваши опорки в хрустальные башмачки. Попробуйте просто и естественно усесться в золоченую тыкву, запряженную мышами, и в этой карете поехать на бал к королю. Попробуйте, наконец, танцевать со сказочным королем и влюбиться в волшебного принца.
Доп. информация:
• На роль короля пробовались и Ю. Толубеев, и К. Адашевский — и каждый был по-своему хорош, но лишь в Гарине обнаружилась та мера эксцентрики и задушевности, которая нужна сказке.
• Фаина Раневская во время съёмок очень похудела и, гримируясь, безжалостно обращалась со своим лицом. Подтягивала свой многострадальный нос с помощью кусочков газа и лака, запихивала за щеки комочки ваты. Когда её просили не мучить себя, раздражённо отвечала: «Для актрисы не существует никаких неудобств, если это нужно для роли».
• На момент съёмок Янине Жеймо (Золушка) было 38 лет, Алексею Консовскому (Принц) - 35 лет. Игравший родного отца Золушки Василий Меркурьев всего на пять лет старше Жеймо.
Сэмпл: http://multi-up.com/615295
Качество: BDRip 1080p
Формат: MKV
Видео кодек:AVC
Аудио кодек:DTS
Видео: MPEG-4/AVC / 13500 kbps / 1488x1080p / 23,976 fps / High Profile 4.1 / 0,350
Аудио 1: AC3 / 1ch / 48 kHz / 384 kbps / 16-bit| Отдельным файлом|
Аудио 2: DTS / 6ch / 48 kHz / 1510 kbps / 24-bit
Полное имя : Zolushka.1947.cvetnaya.versiya.BDRip.1080p.by-genkasper.mkv
Формат : Matroska
Версия формата : Version 2
Размер файла : 8,80 Гбайт
Продолжительность : 1 ч. 21 м.
Общий поток : 15,4 Мбит/сек
Дата кодирования : UTC 2011-12-20 04:20:40
Программа кодирования : mkvmerge v5.2.0 ('I can't explain') built on Dec 18 2011 18:12:03
Библиотека кодирования : libebml v1.2.3 + libmatroska v1.3.0
Видео
Идентификатор : 1
Формат : AVC
Формат/Информация : Advanced Video Codec
Профиль формата : High@L4.1
Параметр CABAC формата : Да
Параметр ReFrames формата : 5 кадров
Идентификатор кодека : V_MPEG4/ISO/AVC
Продолжительность : 1 ч. 21 м.
Битрейт : 13,5 Мбит/сек
Ширина : 1488 пикселей
Высота : 1080 пикселей
Соотношение сторон : 1,378
Частота кадров : 23,976 кадра/сек
Цветовое пространство : YUV
Субдискретизация насыщенности : 4:2:0
Битовая глубина : 8 бит
Тип развёртки : Прогрессивная
Бит/(Пиксели*Кадры) : 0.350
Размер потока : 7,54 Гбайт (86%)
Библиотека кодирования : x264 core 115 r1936 7a9e08d
Настройки программы : cabac=1 / ref=5 / deblock=1:-1:-1 / analyse=0x3:0x113 / me=umh / subme=10 / psy=1 / psy_rd=1.00:0.10 / mixed_ref=1 / me_range=24 / chroma_me=1 / trellis=2 / 8x8dct=1 / cqm=0 / deadzone=21,11 / fast_pskip=0 / chroma_qp_offset=-3 / threads=9 / sliced_threads=0 / nr=0 / decimate=1 / interlaced=0 / bluray_compat=0 / constrained_intra=0 / bframes=12 / b_pyramid=2 / b_adapt=2 / b_bias=0 / direct=3 / weightb=1 / open_gop=0 / weightp=2 / keyint=250 / keyint_min=23 / scenecut=40 / intra_refresh=0 / rc_lookahead=50 / rc=2pass / mbtree=1 / bitrate=13500 / ratetol=1.0 / qcomp=0.70 / qpmin=0 / qpmax=69 / qpstep=4 / cplxblur=20.0 / qblur=0.5 / ip_ratio=1.40 / aq=1:1.00
Язык : English
Аудио #1
Идентификатор : 2
Формат : AC-3
Формат/Информация : Audio Coding 3
Расширение режима : CM (complete main)
Идентификатор кодека : A_AC3
Продолжительность : 1 ч. 21 м.
Вид битрейта : Постоянный
Битрейт : 384 Кбит/сек
Каналы : 1 канал
Расположение каналов : Front: C
Частота : 48,0 КГц
Битовая глубина : 16 бит
Метод сжатия : С потерями
Задержка видео : 24 мс.
Размер потока : 225 Мбайт (2%)
Заголовок : AC3 1ch 384 kbps
Язык : Russian
Аудио #2
Идентификатор : 3
Формат : DTS
Формат/Информация : Digital Theater Systems
Идентификатор кодека : A_DTS
Продолжительность : 1 ч. 21 м.
Вид битрейта : Постоянный
Битрейт : 1510 Кбит/сек
Каналы : 6 каналов
Расположение каналов : Front: L C R, Side: L R, LFE
Частота : 48,0 КГц
Битовая глубина : 24 бит
Метод сжатия : С потерями
Задержка видео : 3 мс.
Размер потока : 884 Мбайт (10%)
Заголовок : DTS 6ch(5.1) 1510 kbps
Язык : Russian

piratbit.pw



Скачать Золушка через торрент http://i32.fastpic.ru/big/2011/1219/98/8c13cfed89cc8563cb8a2f656de02a98.png Скачать фильм Золушка через торрент бесплантно в хорошем качестве Описание: Основа сюжета - старинный сказочный мотив о трудолюбивой Золушке, злой мачехе и ленивых сестрах. Разумеется, Шварцем ... 10 10 4
Info! Золотая раздача, скачанное не засчитывается.
Торрент: Зарегистрирован [2011-12-20 17:02] · скачан: 98 раз
Статус: √ проверено
Размер: 8.21 GB
Как cкачать? Как скачать Золушка через торрент | qTorrent

% Раздел Тема Автор DL S | L
T Фильмы 2018 [DVDrip, WEB-DLRip, HDrip] (DUB, MVO) [ 1.91 GB ] Совсем не Золушка / Not Cinderella's Type [2018 Мело WEB-DLRip-AVC] [MVO] от MediaBit Lithuania Скачать
5 | 0
Фильмы 2019-2020 [DVDrip, WEB-DLRip, HDrip] (DUB, MVO) [ 1.89 GB ] Диджей Золушка / Cinderela Pop [2019 Мело WEB-DLRip-AVC] [ ] от MediaBit Lithuania Скачать
4 | 0
Иностранные мультфильмы [ 747 MB ] Золушка / Cinderella [1996 мультфильм сказка DVDRip-AVC] MVO serg7628 Скачать
2 | 0
Русские порно фильмы [ 3.6 GB ] Золушка [2003 Feature Parody Anal Lesbians DVD - Remux] Леонид Ильич Скачать
1 | 0
Детективы, Боевики, Триллеры [ 825 MB ] Данил Корецкий - Лабутены для Золушки [Аравушкин Александр 2019 128 kbps MP3] bober100 Скачать
1 | 0
Ultra HD (UHD: 2K, 4K, 8K) — видео сверхвысокой чёткости [ 15.32 GB ] Золушка / Cinderella [2015 UHD BDRip 2160p] DUB [] sheker187 Скачать
1 | 0
Ultra HD (UHD: 2K, 4K, 8K) — видео сверхвысокой чёткости [ 51.72 GB ] Золушка / Cinderella [2015 UHD BDRemux 2160p] DUB [] sheker187 Скачать
1 | 0

28-11-2019 20:33  

Отключить всю рекламу на сайте

20-12-2011 19:12 Золушка Скачать торрент  

Спасибо, заберу, старая добрая сказка...piratbit.pw



    Дорогой пользователь! Огромная просьба, поблагодарите релизера, оцените раздачу и оставьте свои комментарий, если Вы скачали Золушка через торрент бесплатно! Внесите свою лепту в развитие PiratBit!
    Комментировать посты могут только пользователи прошедшие не сложную регистрацию
    Показать сообщения:    

    Золушка через торрент
    Скачать бесплатно Золушка
    Золушка скачать торрент
    Золушка смотреть онлайн
    Cкачать фильм Золушка бесплатно
    Золушка скачать торрент в хорошем качестве
    Золушка смотреть онлайн бесплатно в хорошем качестве


    Вы не можете начинать темы
    Вы не можете отвечать на сообщения
    Вы не можете редактировать свои сообщения
    Вы не можете удалять свои сообщения
    Вы не можете голосовать в опросах
    Вы не можете прикреплять файлы к сообщениям
    Вы можете скачивать файлы