1 сезон

1 сезон

iTunes

1

КиноПоиск HD

Кинопоиск HD

iTunes

13

1 сезон

RePack

30

Deluxe

ВАЖНО

ИГРА 18+

pack

RePack

MK11
pack

Легкие деньги

RePack

jed

RePack

fifa19

RePack

RDR2

RePack

NEED FOR SPEED™ PAYBACK

4 сезон

9 сезон

Бесстыжие 9 сезон

Все сериалы

все сериалы на PB.wtf

RePack

FAR CRY 5
  
Magnet ссылка

Сайлент Хилл / Silent Hill (Кристоф Ганс) [2006 г., ужасы, приключения, BDRip-AVC] piratbit.pw

Сайлент Хилл через торрент piratbit.pw

Размер: 1.45 GB | Добавлен: 9 лет 6 мес. назад | Торрент скачан:1435 раз
Скачать  

10-10-2011 13:19 Сайлент Хилл Скачать торрент  

Сайлент Хилл / Silent HillГод выпуска: 2006
Страна: США, Канада, Франция, Япония
Жанр: ужасы, приключения
Продолжительность: 02:05:19
Перевод: Дублированный

Режиссер: Кристоф Ганс
Сценарий: Роджер Эвэри

Бюджет: $50 000 000
Премьера в мире: 21 апреля 2006




В ролях: Рада Митчел, Шон Бин, Лори Холден, Дебора Унгер, Ким Коутс, Таня Аллен, Элис Кридж, Джоделль Ферланд, Коллин Уильямс, Рон Гэбриел, Дерек Ритшель, Никки Гуаданьи, Максин Дюмон, Кристофер Бриттон, Стивен Р. Харт, Саймон Ричардс, Йен Уайт, Элизабет Харпур, Джанет Лэнд, Флоренс МакГрегор

Описание: Молодая мать, отчаявшись найти лекарство от таинственного заболевания своей дочери Шэрон, отказывается отдать ее в психиатрическую лечебницу. Вместе с Шэрон она отправляется в Сайлент Хилл, город, название которого ее дочь постоянно твердит во сне. Несмотря на сопротивление мужа, Роуз убеждена, что найдет там ответы, в которых так нуждается. Но когда они подъезжают к заброшенному городу, на дороге появляется таинственная фигура, Роуз резко тормозит, и машина попадает в аварию... Придя в себя, она обнаруживает, что Шэрон исчезла...

В компании упрямой женщины-полицейской из городка неподалеку Роуз отправляется на поиски своего ребенка в Сайлент Хилл, место, непохожее ни на одно другое: город покрыт туманом, его населяют странные, проклятые создания, и время от времени он погружается во Мрак, который буквально меняет все, к чему прикасается... В поисках дочери Роуз узнает об истории Сайлент Хилла, его пуританском прошлом, полном насилия, и причинах проклятия, висящего над городом. Она понимает, ее ребенок - лишь часть большой, ужасающей головоломки...

Качество: BDRip-AVC
Формат: MKV
Видео кодек: H.26x
Аудио кодек: AC3
Видео: 1016x432 (2,35:1), 23,976 fps, 1276 kbps, 0.121 bit/pixel
Аудио: 48 kHz, AC3 5.1, 16-bit, 384.00 kbps (Русский)

&
Полное имя : D:\Роздачи\Silent Hill.2006.HQBDRip-AVC.PT.mkv
Формат : Matroska
Размер файла : 1,45 Гбайт
Продолжительность : 2 ч. 5 м.
Общий поток : 1660 Кбит/сек
Дата кодирования : UTC 2011-10-10 04:31:34
Программа кодирования : mkvmerge v4.9.1 ('Ich will') сборка от Jul 11 2011 23:53:15
Библиотека кодирования : libebml v1.2.1 + libmatroska v1.1.1

Видео
Идентификатор : 1
Формат : AVC
Формат/Информация : Advanced Video Codec
Профиль формата : High@L4.1
Параметр CABAC формата : Да
Параметр ReFrames формата : 4 кадра
Идентификатор кодека : V_MPEG4/ISO/AVC
Продолжительность : 2 ч. 5 м.
Битрейт : 1276 Кбит/сек
Ширина : 1016 пикс.
Высота : 432 пикс.
Соотношение сторон : 2,35:1
Частота кадров : 23,976 кадр/сек
Цветовое пространство : YUV
Подвыборка цветности : 4:2:0
Битовая глубина : 8 бит
Тип развёртки : Прогрессивная
Бит/(Пиксели*Кадры) : 0.121
Размер потока : 1,09 Гбайт (75%)
Библиотека кодирования : x264 core 116 r2074 2641b9e
Настройки программы : cabac=1 / ref=3 / deblock=1:-3:-3 / analyse=0x3:0x113 / me=umh / subme=10 / psy=1 / psy_rd=1.00:0.00 / mixed_ref=1 / me_range=48 / chroma_me=1 / trellis=2 / 8x8dct=1 / cqm=0 / deadzone=21,11 / fast_pskip=1 / chroma_qp_offset=-2 / threads=6 / sliced_threads=0 / nr=0 / decimate=1 / interlaced=0 / bluray_compat=0 / constrained_intra=0 / bframes=3 / b_pyramid=2 / b_adapt=1 / b_bias=0 / direct=3 / weightb=1 / open_gop=0 / weightp=2 / keyint=250 / keyint_min=23 / scenecut=40 / intra_refresh=0 / rc=2pass / mbtree=0 / bitrate=1276 / ratetol=1.0 / qcomp=0.60 / qpmin=10 / qpmax=51 / qpstep=4 / cplxblur=20.0 / qblur=0.5 / ip_ratio=1.40 / pb_ratio=1.30 / aq=1:1.00

Аудио
Идентификатор : 2
Формат : AC-3
Формат/Информация : Audio Coding 3
Расширение режима : CM (complete main)
Идентификатор кодека : A_AC3
Продолжительность : 2 ч. 5 м.
Вид битрейта : Постоянный
Битрейт : 384 Кбит/сек
Каналы : 6 каналов
Расположение каналов : Front: L C R, Side: L R, LFE
Частота : 48,0 КГц
Битовая глубина : 16 бит
Метод сжатия : С потерями
Размер потока : 344 Мбайт (23%)
Заголовок : Дубляж
Язык : Russian





piratbit.pw



Скачать Сайлент Хилл через торрент http://lostpic.net/images/d836463520cb238a9bd45c19174308c8.png Скачать фильм Сайлент Хилл через торрент бесплантно в хорошем качестве Описание: Молодая мать, отчаявшись найти лекарство от таинственного заболевания своей дочери Шэрон, отказывается отдать ее в ... 10 10 10
Info! Золотая раздача, скачанное не засчитывается.
Торрент: Зарегистрирован [2011-10-10 13:19] · скачан: 1 435 раз
Статус: √ проверено
Размер: 1.45 GB
Как cкачать? Как скачать Сайлент Хилл через торрент | UTorrent

% Раздел Тема Автор DL S | L
Фильмы 2012 [ 2.06 GB ] Сайлент Хилл 2 / Silent Hill: Revelation [2012 BDRip-AVC] [RUS Transfer / Open Matte] killermax2013 Скачать
1 | 0
Фильмы 2006-2008 [ 3.95 GB ] Сайлент Хилл / Silent Hill [2006 WEB-DLRip-AVC] [Open Matte] + 2x[DVO] + 2x[AVO] killermax2013 Скачать
1 | 0
Фильмы 2012 [ 1.45 GB ] Сайлент Хилл 2 / Silent Hill: Revelation [2012 HDRip] DUB |лицензия| NarutoSasuke Скачать
1 | 0
Фильмы 2006-2008 [ 2.91 GB ] Сайлент Хилл / Silent Hill [2006 BDRip-AVC] DUB potroks Скачать
2 | 0
Фильмы 2006-2008 [ 3.61 GB ] Сайлент Хилл: Дилогия / Silent Hill Dilogy [2006-2012 HDRip ] Dean24 Скачать
1 | 0
Фильмы 2012 [ 2.92 GB ] Сайлент Хилл: Дилогия / Silent Hill: Dilogy [2006-2012 г BDRip-AVC] DUB Rzhavec Скачать
1 | 0
Фильмы (HD 720p, 1080p) (48-60 fps) [ 11.14 GB ] Сайлент Хилл / Silent Hill [2006 BDRip 720p ] 60 fps -=DANTE=- Скачать
1 | 0

28-11-2019 20:33  

Отключить всю рекламу на сайте

10-10-2011 15:06 Сайлент Хилл Скачать торрент  

не вижу скриншотов..piratbit.pw



10-10-2011 15:53 Сайлент Хилл Скачать торрент  

Всё норм со скринами и фильм кульныйpiratbit.pw



06-02-2012 01:43 Сайлент Хилл Скачать торрент  

Где раздающие???piratbit.pw



01-02-2013 05:47 Сайлент Хилл Скачать торрент  

Monarch писал(а):

Где раздающие???

ща скачаю потом раздам:)piratbit.pw



    Дорогой пользователь! Огромная просьба, поблагодарите релизера, оцените раздачу и оставьте свои комментарий, если Вы скачали Сайлент Хилл через торрент бесплатно! Внесите свою лепту в развитие PiratBit!
    Комментировать посты могут только пользователи прошедшие не сложную регистрацию
    Показать сообщения:    

    Сайлент Хилл через торрент
    Скачать бесплатно Сайлент Хилл
    Сайлент Хилл скачать торрент
    Сайлент Хилл смотреть онлайн
    Cкачать фильм Сайлент Хилл бесплатно
    Сайлент Хилл скачать торрент в хорошем качестве
    Сайлент Хилл смотреть онлайн бесплатно в хорошем качестве


    Вы не можете начинать темы
    Вы не можете отвечать на сообщения
    Вы не можете редактировать свои сообщения
    Вы не можете удалять свои сообщения
    Вы не можете голосовать в опросах
    Вы не можете прикреплять файлы к сообщениям
    Вы можете скачивать файлы