1 сезон

1 сезон

iTunes

1

iTunes

Кинопоиск HD

iTunes

13

1 сезон

RePack

30

Deluxe

ВАЖНО

ИГРА 18+

pack

RePack

MK11
pack

Легкие деньги

RePack

jed

RePack

fifa19

RePack

RDR2

RePack

NEED FOR SPEED™ PAYBACK

4 сезон

9 сезон

Бесстыжие 9 сезон

Все сериалы

все сериалы на PB.wtf

RePack

FAR CRY 5
  
Magnet ссылка

Живая бомба / Time Bomb (Эрин Берри) [2008 г., триллер, DVDRip] piratbit.pw

Живая бомба через торрент piratbit.pw

Размер: 1.37 GB | Добавлен: 9 лет 8 мес. назад | Торрент скачан:25 раз
Скачать  

09-09-2011 23:58 Живая бомба Скачать торрент  

Живая бомба / Time Bomb

Год выпуска: 2008
Страна: Канада
Жанр: триллер
Продолжительность: 01:22:37
Перевод: Профессиональный (многоголосый, закадровый)

Режиссер: Эрин Берри
Продюссер: Роберт Уилсон, Жаклин Келли, Джефф Уилсон
Сценарий: Эрин Берри, David Pluscauskas

R
-Лицам до 17 лет обязательно присутствие взрослого
Мировой рейтинг IMDB 3.20 (214)


Дата мировой премьеры: 30.06.2008
Дата выхода DVD релиза: 01.09.2011

В ролях: Джейк Бьюзи, Мэттью МакФадзин, Вик Сахай, Ричард Фицпатрик, Дэвид Джонс, Дебора Оделл, Дэниэл Кук, Роберт Бокстэл, Мэтт Остин, Марк Хикокс

Описание:
Джейсон трагически потерял свего молодого сына, когда их SUV взорвался. Теперь, будучи солдатом в Ираке, террористические акты происходящие вокруг него ежедневно напоминают ему о потере сына. В это время армейский учёный рассказывает Джейсону об экспериментальном вирусе, который создал бы команду террористов — смертников для использования против врага. Сомневающийся заражен ли он вирусом, Джейсон изо всех сил пытается расшифровать какие взрывы являются реальными, а какие были лишь его воображением...

Качество: DVDRip
Формат: AVI
Видео кодек: XviD
Аудио кодек: AC3
Видео: ~1975 kb/s, 720 х 400, 16:9
Аудио: 384 kb/s, 5.1,
Общее
Полное имя : G:\Zhivaja.bomba.2008.XviD.DVDRip.avi
Формат : AVI
Формат/Информация : Audio Video Interleave
Размер файла : 1,37 Гбайт
Продолжительность : 1 ч. 22 м.
Общий поток : 2368 Кбит/сек
Программа кодирования : VirtualDubMod 1.5.10.3 | www.virtualdub-fr.org || (build 2550/release)
Библиотека кодирования : VirtualDubMod build 2550/release

Видео
Идентификатор : 0
Формат : MPEG-4 Visual
Профиль формата : Advanced Simple@L5
Параметр BVOP формата : 2
Параметр QPel формата : Нет
Параметр GMC формата : Без точки перехода
Параметр матрицы формата : Default (MPEG)
Идентификатор кодека : XVID
Идентификатор кодека/Подсказка : XviD
Продолжительность : 1 ч. 22 м.
Битрейт : 1975 Кбит/сек
Ширина : 720 пикс.
Высота : 400 пикс.
Соотношение сторон : 16:9
Частота кадров : 25,000 кадр/сек
Цветовое пространство : YUV
Подвыборка цветности : 4:2:0
Битовая глубина : 8 бит
Тип развёртки : Прогрессивная
Метод сжатия : С потерями
Бит/(Пиксели*Кадры) : 0.274
Размер потока : 1,14 Гбайт (83%)
Библиотека кодирования : XviD 1.2.1 (UTC 2008-12-04)

Аудио
Идентификатор : 1
Формат : AC-3
Формат/Информация : Audio Coding 3
Расширение режима : CM (complete main)
Идентификатор кодека : 2000
Продолжительность : 1 ч. 22 м.
Вид битрейта : Постоянный
Битрейт : 384 Кбит/сек
Каналы : 6 каналов
Расположение каналов : Front: L C R, Side: L R, LFE
Частота : 48,0 КГц
Битовая глубина : 16 бит
Метод сжатия : С потерями
Размер потока : 227 Мбайт (16%)
Выравнивание : Разделение по промежуткам
Продолжительность промежутка : 40 мс. (1,00 видеокадр)
Время предзагрузки промежутка : 500 ms





piratbit.pw



Скачать Живая бомба через торрент http://lostpic.net/images/a46ba999a21c2cb70e93980babbbc5d5.jpg Скачать фильм Живая бомба через торрент бесплантно в хорошем качестве Описание: Джейсон трагически потерял свего молодого сына, когда их SUV взорвался. Теперь, будучи солдатом в Ираке, террористические акты ... 4.8 10 4
Info! Золотая раздача, скачанное не засчитывается.
Торрент: Зарегистрирован [2011-09-09 23:58] · скачан: 25 раз
Статус: √ проверено
Размер: 1.37 GB
Как cкачать? Как скачать Живая бомба через торрент | UTorrent

28-11-2019 20:33  

Отключить всю рекламу на сайте

10-09-2011 03:01 Живая бомба Скачать торрент  

Как фильмец, Я ПЕРВЫЙpiratbit.pw



10-09-2011 07:19 Живая бомба Скачать торрент  

Вот и расскажешь )))piratbit.pw



    Дорогой пользователь! Огромная просьба, поблагодарите релизера, оцените раздачу и оставьте свои комментарий, если Вы скачали Живая бомба через торрент бесплатно! Внесите свою лепту в развитие PiratBit!
    Комментировать посты могут только пользователи прошедшие не сложную регистрацию
    Показать сообщения:    

    Живая бомба через торрент
    Скачать бесплатно Живая бомба
    Живая бомба скачать торрент
    Живая бомба смотреть онлайн
    Cкачать фильм Живая бомба бесплатно
    Живая бомба скачать торрент в хорошем качестве
    Живая бомба смотреть онлайн бесплатно в хорошем качестве


    Вы не можете начинать темы
    Вы не можете отвечать на сообщения
    Вы не можете редактировать свои сообщения
    Вы не можете удалять свои сообщения
    Вы не можете голосовать в опросах
    Вы не можете прикреплять файлы к сообщениям
    Вы можете скачивать файлы