Marvel's Avengers Deluxe Edition (супер цена) 159р. Внимание количество ограничено!!!

2 сезон

iTunes

iTunes

1

iTunes

iTunes

iTunes

WEBRip

iTunes

30
pack

Новость дня

ВАЖНО

!!Акция!!

Alien_RageХит недели

RePack

Horizon Zero Dawn

ИГРА 18+

pack

RePack

jed

!!Акция!!

Alien_Rage

RePack

fifa19

RePack

Assassins Creed: Odyssey

RePack

NEED FOR SPEED™ PAYBACK

4 сезон

9 сезон

Бесстыжие 9 сезон

Все сериалы

все сериалы на PB.wtf

RePack

FAR CRY 5
  

Старик Хоттабыч (Геннадий Казанский) [1956 г., фэнтези, семейный, BDRip-AVC] piratbit.pw

Старик Хоттабыч через торрент piratbit.pw

Размер: 2.05 GB | Добавлен: 9 лет назад | Торрент скачан:171 раз
Скачать  

30-08-2011 16:08 Старик Хоттабыч Скачать торрент  

Старик Хоттабыч Год выпуска: 1956
Страна: СССР, Ленфильм
Жанр: фэнтези, семейный
Продолжительность: 01:24:20
Субтитры: Отсутствуют

Режиссер: Геннадий Казанский
Сценарий: Лазарь Лагин

Мировой рейтинг IMDB 6.90 (224)


Описание: 12-летний московский школьник Волька, купаясь в Москва-реке, находит какой-то древний запечатанный сосуд. Мальчишеское любопытство настолько сильно, что при первом же удобном случае Волька вскрывает его, и из сосуда появляется сказочный джинн — Гассан Абдурахман ибн Хоттаб. За то, что Волька спас его от двухтысячелетнего заточения, джинн, прозванный мальчиком Хоттабычем, становится его верным слугой. Он пытается задарить мальчика, пригнав к его дому целый караван верблюдов с несметными сокровищами. Вместе они совершат увлекательный полет в Индию на волшебном ковре-самолете...

Формат: MKV
Качество: BDRip-AVC
Видео: H.264, 1000х768 pix, 2707 Kbps, 23.976 fps, High@L4.1
Аудио:
48.0 KHz, AC-3, 6 channels, 384 Kbps
48.0 KHz, AC-3, 1 channel, 384 Kbps

Релиз от:
General
Unique ID : 171841643249214420362091984175067912492 (0x81477F23F8CC0983BEFF2E959FC9592C)
Complete name : J:BDRip-AVCСтарик Хоттабыч (1956).mkv
Format : Matroska
Format version : Version 2
File size : 2.05 GiB
Duration : 1h 24mn
Overall bit rate : 3 475 Kbps
Encoded date : UTC 2011-08-20 15:13:05
Writing application : mkvmerge v4.8.0 ('I Got The...') сборка от May 24 2011 03:12:58
Writing library : libebml v1.2.0 + libmatroska v1.1.0

Video
ID : 1
Format : AVC
Format/Info : Advanced Video Codec
Format profile : High@L4.1
Format settings, CABAC : Yes
Format settings, ReFrames : 8 frames
Muxing mode : Header stripping
Codec ID : V_MPEG4/ISO/AVC
Duration : 1h 24mn
Bit rate : 2 707 Kbps
Width : 1 000 pixels
Height : 768 pixels
Display aspect ratio : 4:3
Frame rate : 23.976 fps
Color space : YUV
Chroma subsampling : 4:2:0
Bit depth : 8 bits
Scan type : Progressive
Bits/(Pixel*Frame) : 0.147
Stream size : 1.55 GiB (76%)
Title : for freeisland
Writing library : x264 core 115 r1995 c1e60b9
Encoding settings : cabac=1 / ref=8 / deblock=1:-1:-1 / analyse=0x3:0x133 / me=hex / subme=8 / psy=1 / psy_rd=1.00:0.15 / mixed_ref=1 / me_range=16 / chroma_me=1 / trellis=1 / 8x8dct=1 / cqm=0 / deadzone=21,11 / fast_pskip=1 / chroma_qp_offset=-3 / threads=6 / sliced_threads=0 / nr=0 / decimate=1 / interlaced=0 / bluray_compat=0 / constrained_intra=0 / bframes=7 / b_pyramid=2 / b_adapt=2 / b_bias=0 / direct=3 / weightb=1 / open_gop=0 / weightp=2 / keyint=250 / keyint_min=23 / scenecut=40 / intra_refresh=0 / rc_lookahead=50 / rc=2pass / mbtree=1 / bitrate=2707 / ratetol=1.0 / qcomp=0.60 / qpmin=0 / qpmax=69 / qpstep=4 / cplxblur=20.0 / qblur=0.5 / vbv_maxrate=50000 / vbv_bufsize=50000 / nal_hrd=none / ip_ratio=1.40 / aq=1:1.00
Language : Russian

Audio #1
ID : 2
Format : AC-3
Format/Info : Audio Coding 3
Mode extension : CM (complete main)
Muxing mode : Header stripping
Codec ID : A_AC3
Duration : 1h 24mn
Bit rate mode : Constant
Bit rate : 384 Kbps
Channel(s) : 6 channels
Channel positions : Front: L C R, Side: L R, LFE
Sampling rate : 48.0 KHz
Bit depth : 16 bits
Compression mode : Lossy
Stream size : 232 MiB (11%)
Title : 48.0 KHz, AC-3, 6 channels, 384 Kbps
Language : Russian

Audio #2
ID : 3
Format : AC-3
Format/Info : Audio Coding 3
Mode extension : CM (complete main)
Muxing mode : Header stripping
Codec ID : A_AC3
Duration : 1h 24mn
Bit rate mode : Constant
Bit rate : 384 Kbps
Channel(s) : 1 channel
Channel positions : Front: C
Sampling rate : 48.0 KHz
Bit depth : 16 bits
Compression mode : Lossy
Stream size : 232 MiB (11%)
Title : 48.0 KHz, AC-3, 1 channel, 384 Kbps
Language : Russian
Скриншоты:
скриншот  скриншот  скриншот  скриншот  
piratbit.pw



Скачать Старик Хоттабыч через торрент http://i31.fastpic.ru/big/2011/0830/e8/8c7a6bed5d0fd6409fb4e7a1b53acae8.jpg Скачать фильм Старик Хоттабыч через торрент бесплантно в хорошем качестве Описание: 12-летний московский школьник Волька, купаясь в Москва-реке, находит какой-то древний запечатанный сосуд. Мальчишеское ... 10 10 3
Info! Золотая раздача, скачанное не засчитывается.
Торрент: Зарегистрирован [2011-08-30 16:08] · скачан: 171 раз
Статус: √ проверено
Размер: 2.05 GB
Как cкачать? Как скачать Старик Хоттабыч через торрент | qTorrent

% Раздел Тема Автор DL S | L
Детские отечественные фильмы [ 2.91 GB ] Старик Хоттабыч [1956 слова BDRip] Alexxx5252 Скачать
2 | 0

28-11-2019 20:33  

Отключить всю рекламу на сайте

30-08-2011 17:02 Старик Хоттабыч Скачать торрент  

СПАСИБО СПАСИБО СПАСИБО очень долго ждал эту сказку в отличном качестве. Эта сказка моего детства, советую всем детям и взрослым посмотреть её в новом качестве.piratbit.pw



30-08-2011 17:14 Старик Хоттабыч Скачать торрент  

Пожалуйста.piratbit.pw



05-10-2011 00:58 Старик Хоттабыч Скачать торрент  

jb_alex
Дайте докачать осталось половинаpiratbit.pw



11-04-2012 20:08 Старик Хоттабыч Скачать торрент  

:sensored: piratbit.pw



    Дорогой пользователь! Огромная просьба, поблагодарите релизера, оцените раздачу и оставьте свои комментарий, если Вы скачали Старик Хоттабыч через торрент бесплатно! Внесите свою лепту в развитие PiratBit!
    Комментировать посты могут только пользователи прошедшие не сложную регистрацию
    Показать сообщения:    

    Старик Хоттабыч через торрент
    Скачать бесплатно Старик Хоттабыч
    Старик Хоттабыч скачать торрент
    Старик Хоттабыч смотреть онлайн
    Cкачать фильм Старик Хоттабыч бесплатно
    Старик Хоттабыч скачать торрент в хорошем качестве
    Старик Хоттабыч смотреть онлайн бесплатно в хорошем качестве


    Вы не можете начинать темы
    Вы не можете отвечать на сообщения
    Вы не можете редактировать свои сообщения
    Вы не можете удалять свои сообщения
    Вы не можете голосовать в опросах
    Вы не можете прикреплять файлы к сообщениям
    Вы можете скачивать файлы