1 сезон

1 сезон

iTunes

1

iTunes

Кинопоиск HD

iTunes

13

1 сезон

RePack

30

Deluxe

ВАЖНО

ИГРА 18+

pack

RePack

MK11
pack

Легкие деньги

RePack

jed

RePack

fifa19

RePack

RDR2

RePack

NEED FOR SPEED™ PAYBACK

4 сезон

9 сезон

Бесстыжие 9 сезон

Все сериалы

все сериалы на PB.wtf

RePack

FAR CRY 5
  
Magnet ссылка

Белый свет / Тихая армия / Wit licht / The Silent Army (Жан Ван Де Вельде) [2008 г., боевик, драма, BDRip-AVC] piratbit.pw

Белый свет через торрент piratbit.pw

Размер: 2.21 GB | Добавлен: 9 лет 8 мес. назад | Торрент скачан:38 раз
Скачать  

28-08-2011 10:26 Белый свет Скачать торрент  

Белый свет / Тихая армия / Wit licht / The Silent Army

Год выпуска: 2008
Страна: Нидерланды
Жанр: боевик, драма
Продолжительность: 01:54:00
Перевод: Любительский (одноголосый закадровый)

Режиссер: Жан Ван Де Вельде

В ролях: Марко Борзато, Сибе Схонефелд, Текла Рёутер, Жаклин Блом, Пейтер ван ден Бейгин

Описание: Африка. Детей насильно отправляют в тренировочные лагеря,чтоб делать из них солдат. Хозяин ресторана, белый мужчина, дружит с чернокожим мальчиком Абу и когда тот пропадает, он отправляется на его поиски в запретную территорию.

Семпл:
http://multi-up.com/543840



Качество: BDRip-AVC
Формат: MKV
Видео кодек: AVC
Аудио кодек: MPEG Audio
Видео: AVC, 1 803 Kbps, 1024 x 434 pixels, 24.000 fps, Bits/(Pixel*Frame) : 0.169
Audio #1 MPEG Audio, 192 Kbps, 2 channels, 48.0 KHz
Audio #2 DTS, 755 Kbps, 6 channels, 48.0 KHz
Complete name The.Silent.Army.2008.Xixidok.mkv
Format : Matroska
File size : 2.21 GiB
Duration : 1h 54mn
Overall bit rate : 2 754 Kbps
Encoded date : UTC 2011-08-22 15:46:38
Writing application : mkvmerge v2.3.0 ('Freak U') built on Sep 8 2008 18:32:16
Writing library : libebml v0.7.7 + libmatroska v0.8.1

Video
ID : 1
Format : AVC
Format/Info : Advanced Video Codec
Format profile : Main@L4.1
Format settings, CABAC : Yes
Format settings, ReFrames : 2 frames
Codec ID : V_MPEG4/ISO/AVC
Duration : 1h 54mn
Bit rate : 1 803 Kbps
Width : 1 024 pixels
Height : 434 pixels
Display aspect ratio : 2.35:1
Frame rate : 24.000 fps
Color space : YUV
Chroma subsampling : 4:2:0
Bit depth : 8 bits
Scan type : Progressive
Bits/(Pixel*Frame) : 0.169
Stream size : 1.40 GiB (64%)
Writing library : x264 core 67 r1165 6841c5e
Encoding settings : cabac=1 / ref=2 / deblock=1:0:0 / analyse=0x1:0x111 / me=umh / subme=6 / psy_rd=1.0:0.0 / mixed_ref=1 / me_range=16 / chroma_me=1 / trellis=1 / 8x8dct=0 / cqm=0 / deadzone=21,11 / chroma_qp_offset=-2 / threads=2 / nr=0 / decimate=1 / mbaff=0 / bframes=3 / b_pyramid=0 / b_adapt=1 / b_bias=0 / direct=3 / wpredb=1 / keyint=250 / keyint_min=25 / scenecut=40 / rc=2pass / bitrate=1803 / ratetol=1.0 / qcomp=0.60 / qpmin=10 / qpmax=51 / qpstep=4 / cplxblur=20.0 / qblur=0.5 / ip_ratio=1.40 / pb_ratio=1.30 / aq=1:1.00

Audio #1
ID : 2
Format : MPEG Audio
Format version : Version 1
Format profile : Layer 3
Mode : Joint stereo
Mode extension : MS Stereo
Codec ID : A_MPEG/L3
Codec ID/Hint : MP3
Duration : 1h 54mn
Bit rate mode : Constant
Bit rate : 192 Kbps
Channel(s) : 2 channels
Sampling rate : 48.0 KHz
Compression mode : Lossy
Stream size : 157 MiB (7%)
Writing library : LAME3.96

Audio #2
ID : 3
Format : DTS
Format/Info : Digital Theater Systems
Codec ID : A_DTS
Duration : 1h 54mn
Bit rate mode : Constant
Bit rate : 755 Kbps
Channel(s) : 6 channels
Channel positions : Front: L C R, Side: L R, LFE
Sampling rate : 48.0 KHz
Bit depth : 24 bits
Compression mode : Lossy
Stream size : 619 MiB (27%)

Text
ID : 4
Format : UTF-8
Codec ID : S_TEXT/UTF8
Codec ID/Info : UTF-8 Plain Text






piratbit.pw



Скачать Белый свет через торрент http://i2.imageban.ru/out/2011/08/28/8bded8c42da2417f60bed8c3e530734e.jpg Скачать фильм Белый свет через торрент бесплантно в хорошем качестве Описание: Африка. Детей насильно отправляют в тренировочные лагеря,чтоб делать из них солдат. Хозяин ресторана, белый мужчина, дружит с ... 5 10 3
Info! Золотая раздача, скачанное не засчитывается.
Торрент: Зарегистрирован [2011-08-28 10:26] · скачан: 38 раз
Статус: √ проверено
Размер: 2.21 GB
Как cкачать? Как скачать Белый свет через торрент | UTorrent

% Раздел Тема Автор DL S | L
Фильмы 2006-2008 [ 1.37 GB ] Белый свет/ Тихая армия / Wit licht/ The Silent Army [2008 HDRip] coc900 Скачать
1 | 0

28-11-2019 20:33  

Отключить всю рекламу на сайте

28-08-2011 14:37 Белый свет Скачать торрент  

Спсpiratbit.pw



28-08-2011 14:44 Белый свет Скачать торрент  

Corvalol
пожалуйстаpiratbit.pw



    Дорогой пользователь! Огромная просьба, поблагодарите релизера, оцените раздачу и оставьте свои комментарий, если Вы скачали Белый свет через торрент бесплатно! Внесите свою лепту в развитие PiratBit!
    Комментировать посты могут только пользователи прошедшие не сложную регистрацию
    Показать сообщения:    

    Белый свет через торрент
    Скачать бесплатно Белый свет
    Белый свет скачать торрент
    Белый свет смотреть онлайн
    Cкачать фильм Белый свет бесплатно
    Белый свет скачать торрент в хорошем качестве
    Белый свет смотреть онлайн бесплатно в хорошем качестве


    Вы не можете начинать темы
    Вы не можете отвечать на сообщения
    Вы не можете редактировать свои сообщения
    Вы не можете удалять свои сообщения
    Вы не можете голосовать в опросах
    Вы не можете прикреплять файлы к сообщениям
    Вы можете скачивать файлы