1 сезон

3 сезон

iTunes

1

iTunes

DUB Netflix

iTunes

13

1 сезон

RePack

30

Deluxe

pack

Легкие деньги

ВАЖНО

ИГРА 18+

pack

RePack

MK11

RePack

jed

RePack

fifa19

RePack

RDR2

RePack

NEED FOR SPEED™ PAYBACK

4 сезон

9 сезон

Бесстыжие 9 сезон

Все сериалы

все сериалы на PB.wtf

RePack

FAR CRY 5

Anonymous, доброй ночи, мы не успеваем до 1 числа собрать деньги на оплату серверов, помогите нам пожалуйста в это трудное время. В качестве благодарности мы отключим Вам всю рекламу на сайте (укажите свой ник в строку Ваше имя)!

×
  
Magnet ссылка

Охранник / The Sentinel (Кларк Джонсон / Clark Johnson) [2006, США, Боевик, детектив, триллер, BDRip] DUB + Eng + Sub rus, eng piratbit.pw

Охранник через торрент piratbit.pw

Размер: 1.79 GB | Добавлен: 9 лет 10 мес. назад | Торрент скачан:30 раз
Скачать  

16-08-2011 11:23 Охранник Скачать торрент  

Охранник / The Sentinel Страна: США
Жанр: Боевик, детектив, триллер
Год выпуска: 2006
Продолжительность: 01:48:00
Перевод: Профессиональный (дублированный)
Оригинальная дорожка : английский - отдельно
Cубтитры: русские, английские - отдельно
Режиссер: Кларк Джонсон / Clark Johnson

В ролях: Майкл Дуглас, Кифер Сазерленд, Ким Бэйсингер, Ева Лонгориа, Мартин Донован, Дэвид Раше

Описание: Специальный агент Пит Гаррисон убежден, что в Белом Доме завелся предатель. Его теория находит подтверждение после убийства одного из охранников президента. Однако подозрение падает на самого Гаррисона. Его отстраняют от дел, и ко всему прочему вменяют в вину связь с первой леди. Жизнь президентской семьи в опасности. Пытаясь найти предателя, Гаррисон вынужден воевать с системой, которую он сам создал...

IMDB 6.1/10 (24,173 votes)
Качество видео: BDRip(Исх. Blu-ray)
Формат видео: AVI
Видео: 720x304 (2.37:1), 23.976 fps, XviD build 50 ~1537 kbps avg, 0.29 bit/pixel
Аудио: 48 kHz, AC3 Dolby Digital, 3/2 (L,C,R,l,r) + LFE ch, ~384 kbps RUS
Аудио: 48 kHz, AC3 Dolby Digital, 3/2 (L,C,R,l,r) + LFE ch, ~448 kbps ENG - отдельно
Формат субтитров: softsub (SRT)
File: Ohrannik.chopper887.avi
Title: Ohrannik.chopper887
Author: chopper887
Filesize: 1491.53 Mb ( 1 563 977 728 bytes )
Play length: 01:48:00.233 (155370 frames)
Subtitles: Not Present
Video: 720x304 (2.37:1), 23.976 fps, XviD build 50 ~1537 kbps avg, 0.29 bit/pixel
Audio: 48 kHz, AC3 Dolby Digital, 3/2 (L,C,R,l,r) + LFE ch, ~384 kbps
General
Complete name : D:\Ohrannik.chopper887.avi
Format : AVI
Format/Info : Audio Video Interleave
File size : 1.46 GiB
Duration : 1h 48mn
Overall bit rate : 1 931 Kbps
Movie name : Ohrannik.chopper887
Director : chopper887
Writing application : VirtualDubMod 1.5.10.3 | www.virtualdub-fr.org || (build 2550/release)
Video
ID : 0
Format : MPEG-4 Visual
Format profile : Advanced Simple@L5
Format settings, BVOP : Yes
Format settings, QPel : No
Format settings, GMC : No warppoints
Format settings, Matrix : Custom
Codec ID : XVID
Codec ID/Hint : XviD
Duration : 1h 48mn
Bit rate : 1 537 Kbps
Width : 720 pixels
Height : 304 pixels
Display aspect ratio : 2.35:1
Frame rate : 23.976 fps
Color space : YUV
Chroma subsampling : 4:2:0
Bit depth : 8 bits
Scan type : Progressive
Compression mode : Lossy
Bits/(Pixel*Frame) : 0.293
Stream size : 1.16 GiB (80%)
Writing library : XviD 1.2.1 (UTC 2008-12-04)
Audio
ID : 1
Format : AC-3
Format/Info : Audio Coding 3
Mode extension : CM (complete main)
Codec ID : 2000
Duration : 1h 48mn
Bit rate mode : Constant
Bit rate : 384 Kbps
Channel(s) : 6 channels
Channel positions : Front: L C R, Side: L R, LFE
Sampling rate : 48.0 KHz
Bit depth : 16 bits
Compression mode : Lossy
Stream size : 297 MiB (20%)
Alignment : Split accross interleaves
Interleave, duration : 42 ms (1.00 video frame)
Interleave, preload duration : 500 ms
piratbit.pw



Скачать Охранник через торрент http://i3.fastpic.ru/big/2009/1023/d4/10d4854048e9aee4b15ff0e56a730ad4.jpg Скачать фильм Охранник через торрент бесплантно в хорошем качестве Описание: Специальный агент Пит Гаррисон убежден, что в Белом Доме завелся предатель. Его теория находит подтверждение после убийства ... 4.6 10 5
Info! Золотая раздача, скачанное не засчитывается.
Торрент: Зарегистрирован [2011-08-16 11:23] · скачан: 30 раз
Статус: √ проверено
Размер: 1.79 GB
Как cкачать? Как скачать Охранник через торрент | UTorrent

28-11-2019 20:33  

Отключить всю рекламу на сайте

    Дорогой пользователь! Огромная просьба, поблагодарите релизера, оцените раздачу и оставьте свои комментарий, если Вы скачали Охранник через торрент бесплатно! Внесите свою лепту в развитие PiratBit!
    Комментировать посты могут только пользователи прошедшие не сложную регистрацию
    Показать сообщения:    

    Охранник через торрент
    Скачать бесплатно Охранник
    Охранник скачать торрент
    Охранник смотреть онлайн
    Cкачать фильм Охранник бесплатно
    Охранник скачать торрент в хорошем качестве
    Охранник смотреть онлайн бесплатно в хорошем качестве


    Вы не можете начинать темы
    Вы не можете отвечать на сообщения
    Вы не можете редактировать свои сообщения
    Вы не можете удалять свои сообщения
    Вы не можете голосовать в опросах
    Вы не можете прикреплять файлы к сообщениям
    Вы можете скачивать файлы