1 сезон

1 сезон

iTunes

1

iTunes

Кинопоиск HD

iTunes

13

1 сезон

RePack

30

Deluxe

ВАЖНО

ИГРА 18+

pack

RePack

MK11
pack

Легкие деньги

RePack

jed

RePack

fifa19

RePack

RDR2

RePack

NEED FOR SPEED™ PAYBACK

4 сезон

9 сезон

Бесстыжие 9 сезон

Все сериалы

все сериалы на PB.wtf

RePack

FAR CRY 5
  
Magnet ссылка

Мистер Простофиля / Mr. Woodcock (Крэйг Гиллеспи) [2007 г., драма, комедия, BDRip, лицензия] piratbit.pw

Мистер Простофиля через торрент piratbit.pw

Размер: 1.46 GB | Добавлен: 10 лет назад | Торрент скачан:16 раз
Скачать  

19-03-2011 10:08 Мистер Простофиля Скачать торрент  

Мистер Простофиля / Mr. Woodcock
Год выпуска: 2007
Страна: США
Жанр: драма, комедия
Продолжительность: 01:25:51
Перевод: Профессиональный (многоголосый, закадровый)
Тип релиза: Лицензия
Режиссер: Крэйг Гиллеспи
Продюссер: Боб Купер, Дэвид Добкин, Кент Альтерман
Сценарий: Майкл Карнес, Джош Гилберт
Бюджет: $22 000 000
PG-13
-Детям до 13 лет просмотр не желателен
Мировой рейтинг IMDB 5.20 (15 036)

В ролях: Билли Боб Торнтон /Billy Bob Thornton/, Шон Уильям Скотт /Seann William Scott/, Сьюзан Сарандон /Susan Sarandon/, Эми Поэлер /Amy Poehler/, Итан Сапли /Ethan Suplee/, Мелисса Сейджмиллер /Melissa Sagemiller/
Описание: Известный писатель возвращается в родной городок для того, чтобы помешать свадьбе своей матери и тренера-садиста, изводившего его в школьные годы.
Качество: BDRip
Формат: AVI
Видео кодек: XviD
Аудио кодек: AC3
Видео: 720x304, 23.976 fps, 2053 kbps, 0.39 bit/pixel, XviD build 47
Аудио: 48 kHz, 6 ch, 384.00 kbps, AC3 Dolby Digital





piratbit.pw



Скачать Мистер Простофиля через торрент http://i18.fastpic.ru/big/2011/0319/bb/a790801a16c79644a53e3d3dad8e95bb.jpg Скачать фильм Мистер Простофиля через торрент бесплантно в хорошем качестве Описание: Известный писатель возвращается в родной городок для того, чтобы помешать свадьбе своей матери и тренера-садиста, изводившего ... 5 10 1
Info! Золотая раздача, скачанное не засчитывается.
Торрент: Зарегистрирован [2011-03-19 10:08] · скачан: 16 раз
Статус: √ проверено
Размер: 1.46 GB
Как cкачать? Как скачать Мистер Простофиля через торрент | UTorrent

% Раздел Тема Автор DL S | L
Фильмы 2006-2008 [ 1.79 GB ] Мистер Вудкок / Мистер Простофиля / Mr. Woodcock [2007 DVB] [Open Matte Transfer] [MVO] killermax2013 Скачать
1 | 0
Фильмы 2006-2008 [ 1.46 GB ] Мистер Простофиля / Mr. Woodcock [2007 BDRip] flansden Скачать
1 | 0


Последний раз редактировалось: jora poker (2011-03-20 20:43), всего редактировалось 1 раз

28-11-2019 20:33  

Отключить всю рекламу на сайте

19-03-2011 19:45 Мистер Простофиля Скачать торрент  

прибавьте скорости пожалуйстаpiratbit.pw



20-03-2011 19:45 Мистер Простофиля Скачать торрент  

тут перевод не дублированный, а профессиональный (многоголосый, закадровый) и качество HDRip (рип сделанный с BDRip 7200) смотрите под спойлером "тех. данные".

Код:

Общее
Полное имя                       : M:\ФИЛЬМЫ\Мистер Простофиля\Mister.Prostofilya.2007.D.XviD.avi
Формат                           : AVI
Формат/Информация                : Audio Video Interleave
Размер файла                     : 1,46 Гбайт
Продолжительность                : 1 ч. 25 м.
Общий поток                      : 2447 Кбит/сек
Название фильма                  : Мистер Простофиля / Mr. Woodcock (2007)
Режиссёр                            : SENATOR (BDRip 7200)
Программа кодирования            : VirtualDubMod 1.5.10.2 (build 2542/release)
Правообладатель                  : HQ-ViDEO (www.hq-video.ru)
Примечание                       : 2.06.2008

Видео
Идентификатор                    : 0
Формат                           : MPEG-4 Visual
Профиль формата                  : Advanced Simple@L5
Параметр BVOP формата            : Да
Параметр QPel формата            : Нет
Параметр GMC формата             : Без точки перехода
Параметр матрицы формата         : Default (MPEG)
Идентификатор кодека             : XVID
Идентификатор кодека/Подсказка   : XviD
Продолжительность                : 1 ч. 25 м.
Битрейт                          : 2053 Кбит/сек
Ширина                           : 720 пикс.
Высота                           : 304 пикс.
Соотношение сторон               : 2,35:1
Частота кадров                   : 23,976 кадр/сек
Цветовое пространство            : YUV
Подвыборка цветности             : 4:2:0
Битовая глубина                  : 8 бит
Тип развёртки                    : Прогрессивная
Метод сжатия                     : С потерями
Бит/(Пиксели*Кадры)              : 0.391
Размер потока                    : 1,22 Гбайт (84%)
Библиотека кодирования           : XviD 1.2.0.dev47 (UTC 2006-11-01)

Аудио
Идентификатор                    : 1
Формат                           : AC-3
Формат/Информация                : Audio Coding 3
Расширение режима                : CM (complete main)
Идентификатор кодека             : 2000
Продолжительность                : 1 ч. 25 м.
Вид битрейта                     : Постоянный
Битрейт                          : 384 Кбит/сек
Канал(ы)                         : 6 канала(ов)
Расположение каналов             : Front: L C R, Side: L R, LFE
Частота                          : 48,0 КГц
Битовая глубина                  : 16 бит
Метод сжатия                     : С потерями
Размер потока                    : 234 Мбайт (16%)
Выравнивание                     : Разделение по промежуткам
Продолжительность промежутка     : 42  мс. (1,00 видеокадр)
Время предзагрузки промежутка    : 500 ms

Название фильма : Мистер Простофиля / Mr. Woodcock (2007)
Режиссёр : SENATOR (BDRip 7200)
Программа кодирования : VirtualDubMod 1.5.10.2 (build 2542/release)
Правообладатель : HQ-ViDEO (www.hq-video.ru)
Примечание : 2.06.2008
piratbit.pw



20-03-2011 20:56 Мистер Простофиля Скачать торрент  

нет я не отуда скачал.....хорошо исправлю....просто я раньше не знал про Медияинфо и просто копировал с других трэкеров))piratbit.pw



20-03-2011 21:30 Мистер Простофиля Скачать торрент  

Mladenec
Уважаемый! И это касается всех. Прежде чем аргументировать свои замечания и давать при этом ссылки на МедиаИнфо , не зная от куда Ваш коллега скачал данный торрент файл, в первую очередь постарайтесь помочь ему разобраться в допущенной им ошибки в лс. Надо уважительно относиться к труду других пользователей. И при этом не надо ставить под сомнение и некомпетентность модератора.piratbit.pw



    Дорогой пользователь! Огромная просьба, поблагодарите релизера, оцените раздачу и оставьте свои комментарий, если Вы скачали Мистер Простофиля через торрент бесплатно! Внесите свою лепту в развитие PiratBit!
    Комментировать посты могут только пользователи прошедшие не сложную регистрацию
    Показать сообщения:    

    Мистер Простофиля через торрент
    Скачать бесплатно Мистер Простофиля
    Мистер Простофиля скачать торрент
    Мистер Простофиля смотреть онлайн
    Cкачать фильм Мистер Простофиля бесплатно
    Мистер Простофиля скачать торрент в хорошем качестве
    Мистер Простофиля смотреть онлайн бесплатно в хорошем качестве


    Вы не можете начинать темы
    Вы не можете отвечать на сообщения
    Вы не можете редактировать свои сообщения
    Вы не можете удалять свои сообщения
    Вы не можете голосовать в опросах
    Вы не можете прикреплять файлы к сообщениям
    Вы можете скачивать файлы