1 сезон

3 сезон

iTunes

1

iTunes

DUB Netflix

iTunes

13

1 сезон

RePack

30

Deluxe

pack

Легкие деньги

ВАЖНО

ИГРА 18+

pack

RePack

MK11

RePack

jed

RePack

fifa19

RePack

RDR2

RePack

NEED FOR SPEED™ PAYBACK

4 сезон

9 сезон

Бесстыжие 9 сезон

Все сериалы

все сериалы на PB.wtf

RePack

FAR CRY 5

Anonymous, доброй ночи, мы не успеваем до 1 числа собрать деньги на оплату серверов, помогите нам пожалуйста в это трудное время. В качестве благодарности мы отключим Вам всю рекламу на сайте (укажите свой ник в строку Ваше имя)!

×
  
Magnet ссылка

Девятаев (Тимур Бекмамбетов, Сергей Трофимов) [2021, Военный, биография, боевик, история, драма, WEBRip 1080p] piratbit.pw

Девятаев через торрент piratbit.pw

Раздают: 33 [ 54 KB/s ]
Размер: 4.61 GB | Добавлен: 8 д. назад | Торрент скачан:683 раза
Скачать  

11-06-2021 03:57 Девятаев Скачать торрент  

Девятаев
Год выпуска: 2021
Страна: Россия
Студия: Военфильм, Базелевс Продакшн
Жанр: Военный, биография, боевик, история, драма
Продолжительность: 01:45:56
Перевод: Не требуется | KION
Субтитры: отсутствуют

Режиссер: Тимур Бекмамбетов, Сергей Трофимов

rating

В ролях: Павел Прилучный, Павел Чинарёв, Алексей Филимонов, Евгений Серзин, Александр Лыков, Дмитрий Лысенков, Дарья Златопольская, Туре Рифенштайн, Патрик Йосвиг, Максим Ханжов, Олег Чугунов, Никита Кологривый, Тимофей Трибунцев, Антон Ксенев, Евгений Санников, Александр Петров, Денис Козинец, Алексей Красноцветов, Антон Бабичев, Татьяна Полонская, Евгений Волошин, Артём Драчёв, Ярослав Кузнецов

Описание: Лето 1944 года. Советские войска ведут наступление, но враг еще очень силен. Летчик-истребитель Михаил Девятаев попадает в плен. Ему предстоит сделать выбор — вернуться в небо, продолжив войну на стороне врага, или отправиться в концлагерь на остров Узедом. Отчаянный ас Девятаев выбирает третье — побег. Но с засекреченного острова, где идут испытания немецких крылатых ракет, нельзя убежать. Зато можно улететь — на аэродроме стоит новейший вражеский бомбардировщик с «оружием возмездия» Третьего рейха на борту. Улететь — и совершить самый дерзкий побег в военной истории.

Качество: WEBRip 1080p
Формат: MKV

Видео: MPEG-4 (AVC), 1920х1080 (16:9), 25 fps, ~ 6144 kbps, 0.119 bit/pixel
Аудио: AAC, 48 kHz, 2 ch, 128 Kbps
скриншот  скриншот  скриншот  скриншот  

General
Unique ID : 66797463041311392926074406533862810092 (0x3240B932946C2F594A4086890B9461EC)
Complete name : Devyatayev.2021.1080p.KION.WEB-DL.AAC2.0.H.264-EniaHD.mkv
Format : Matroska
Format version : Version 4
File size : 4.61 GiB
Duration : 1 h 45 min
Overall bit rate : 6 229 kb/s
Writing application : mkvmerge v57.0.0 ('Till The End') 64-bit
Writing library : libebml v1.4.2 + libmatroska v1.6.4

Video
ID : 1
Format : AVC
Format/Info : Advanced Video Codec
Format profile : Baseline@L4
Format settings : 2 Ref Frames
Format settings, CABAC : No
Format settings, Reference frames : 2 frames
Format settings, GOP : M=1, N=25
Codec ID : V_MPEG4/ISO/AVC
Duration : 1 h 45 min
Bit rate mode : Constant
Bit rate : 6 144 kb/s
Width : 1 920 pixels
Height : 1 080 pixels
Display aspect ratio : 16:9
Frame rate mode : Constant
Frame rate : 25.000 FPS
Color space : YUV
Chroma subsampling : 4:2:0
Bit depth : 8 bits
Scan type : Progressive
Bits/(Pixel*Frame) : 0.119
Stream size : 4.51 GiB (98%)
Default : Yes
Forced : No

Audio
ID : 2
Format : AAC LC
Format/Info : Advanced Audio Codec Low Complexity
Codec ID : A_AAC-2
Duration : 1 h 45 min
Bit rate : 128 kb/s
Channel(s) : 2 channels
Channel layout : L R
Sampling rate : 48.0 kHz
Frame rate : 46.875 FPS (1024 SPF)
Compression mode : Lossy
Stream size : 97.0 MiB (2%)
Language : Russian
Default : Yes
Forced : No

piratbit.pw



Скачать Девятаев через торрент https://i114.fastpic.ru/big/2021/0610/7e/88594ab0c15db6cd503c74b388b1127e.jpg Скачать фильм Девятаев через торрент бесплантно в хорошем качестве Описание: Лето 1944 года. Советские войска ведут наступление, но враг еще очень силен. Летчик-истребитель Михаил Девятаев попадает в плен. ... 8.8 10 23
Торрент: Зарегистрирован [2021-06-11 03:57] · скачан: 683 раз
Статус: T временная
Размер: 4.61 GB
Как cкачать? Как скачать Девятаев через торрент | UTorrent

% Раздел Тема Автор DL S | L
T Наши новые фильмы 2020 - 2021 [ 1.46 GB ] Девятаев [2021 Военный биография история WEBRip] [KION] bober100 Скачать
18 | 0
Историческая книга [ 327 MB ] Валерий Жмак - Летчик Девятаев. Из фашистского ада – в небо! [Григорий Андрианов 2021 128 kbps MP3] urapavel Скачать
1 | 0

28-11-2019 20:33  

Отключить всю рекламу на сайте

11-06-2021 07:47 Девятаев Скачать торрент  

заценим.спасибо.piratbit.pw



11-06-2021 09:48 Девятаев Скачать торрент  

кал?piratbit.pw



11-06-2021 15:30 Девятаев Скачать торрент  

edapush писал(а):

кал?

Да, на кинопоиске рейтинг накручен.piratbit.pw



12-06-2021 00:02 Девятаев Скачать торрент  

Отличнейший фильм, советую посмотретьpiratbit.pw



12-06-2021 03:43 Девятаев Скачать торрент  

хорошее кино получилось.душевно посмотрели.спасибо.piratbit.pw



12-06-2021 08:09 Девятаев Скачать торрент  

не понятные персонажи , вообще не о чем не о ком не рассказалиpiratbit.pw



12-06-2021 08:10 Девятаев Скачать торрент  

какой то клип рамштаинpiratbit.pw



13-06-2021 19:19 Девятаев Скачать торрент  

на один раз Такую историю и так дибильно в 1:45 не снять... еще ухитриться нужно было!! пересмотрите лучше - В бой идут одни старики!)piratbit.pw



14-06-2021 15:18 Девятаев Скачать торрент  

Нормально! Хорошее кино! На IMDb рейтинг ЗАНИЖЕН!!! И на кинопоиске тоже занижено. Смотрите нудиловку - ОТЕЦ - с бешеным рейтингом выше 8!piratbit.pw



    Дорогой пользователь! Огромная просьба, поблагодарите релизера, оцените раздачу и оставьте свои комментарий, если Вы скачали Девятаев через торрент бесплатно! Внесите свою лепту в развитие PiratBit!
    Комментировать посты могут только пользователи прошедшие не сложную регистрацию
    Показать сообщения:    

    Девятаев через торрент
    Скачать бесплатно Девятаев
    Девятаев скачать торрент
    Девятаев смотреть онлайн
    Cкачать фильм Девятаев бесплатно
    Девятаев скачать торрент в хорошем качестве
    Девятаев смотреть онлайн бесплатно в хорошем качестве


    Вы не можете начинать темы
    Вы не можете отвечать на сообщения
    Вы не можете редактировать свои сообщения
    Вы не можете удалять свои сообщения
    Вы не можете голосовать в опросах
    Вы не можете прикреплять файлы к сообщениям
    Вы можете скачивать файлы