1 сезон

3 сезон

iTunes

1

iTunes

DUB Netflix

iTunes

13

1 сезон

RePack

30

Deluxe

pack

Легкие деньги

ВАЖНО

ИГРА 18+

pack

RePack

MK11

RePack

jed

RePack

fifa19

RePack

RDR2

RePack

NEED FOR SPEED™ PAYBACK

4 сезон

9 сезон

Бесстыжие 9 сезон

Все сериалы

все сериалы на PB.wtf

RePack

FAR CRY 5

Anonymous, доброе утро, мы не успеваем до 1 числа собрать деньги на оплату серверов, помогите нам пожалуйста в это трудное время. В качестве благодарности мы отключим Вам всю рекламу на сайте (укажите свой ник в строку Ваше имя)!

×
  
Magnet ссылка

Срок / Time / Сезон: 1 / Серии: 1-3 из 3 (Льюис Арнольд) [2021, драма, криминал, WEB-DL 1080p] MVO [The Kitchen Russia] piratbit.pw

Срок через торрент piratbit.pw

Раздают: 3 [ 1 MB/s ] Качают: 4 [ 0 KB/s ]
Размер: 6.07 GB | Добавлен: 1 д. 8 ч. назад | Торрент скачан:25 раз
Скачать  

10-06-2021 04:19 Срок Скачать торрент  

Срок | Time
Год выпуска: 2021
Страна: Великобритания
Выпущено: BBC Studios
Жанр: Драма, криминал
Продолжительность: ~ 00:50:00 серия
Перевод: Профессиональный (многоголосый) | The Kitchen Russia
Субтитры: отсутствуют

Режиссер: Льюис Арнольд

rating

В ролях: Шон Бин, Стивен Грэм, Дэвид Колдер, Сиобэн Финнеран, Сью Джонстон, Надин Маршалл, Набил Елухаби, Джеймс Нельсон-Джонс, Джек МакМаллен, Джонатан Харден, Теренс Мэйнард, Натали Гэвин, Фил Барантини, Бобби Шофилд, Майкл Соча, Аманда Эдвардс

Описание: Марк Кобден осужден на четыре года за неосторожное убийство, и тюремное окружение ему чуждо. Единственная отдушина для него — общение с Эриком Макналли, добросовестным и человечным тюремным надзирателем. Однако, когда один из опаснейших заключенных выясняет его слабое место, Эрик оказывается перед невозможным выбором между собственными принципами и безопасностью его семьи.

Качество: WEB-DL 1080p
Формат: MKV

Видео: AVC, 1920x1080 (16:9), 25 fps, ~5000 kbps
Аудио №1: E-AC3, 48 kHz, 6 ch, 320 kbps
Аудио №2: E-AC3, 48 kHz, 6 ch, 320 kbps
скриншот  скриншот  скриншот  скриншот  

General
Unique ID : 164326549135125881333362048555101032251 (0x7BA02464D75EA06943BEAB5F34F18F3B)
Complete name : Time.2021.S01.1080p.WEB-DL.DDP5.1.H.264-EniaHD\Time.2021.S01E01.1080p.WEB-DL.DDP5.1.H.264-EniaHD.mkv
Format : Matroska
Format version : Version 4
File size : 2.01 GiB
Duration : 50 min 43 s
Overall bit rate : 5 687 kb/s
Movie name : Time S01E01 - EniaHD
Writing application : mkvmerge v57.0.0 ('Till The End') 64-bit
Writing library : libebml v1.4.2 + libmatroska v1.6.4

Video
ID : 1
Format : AVC
Format/Info : Advanced Video Codec
Format profile : High@L4
Format settings : CABAC / 4 Ref Frames
Format settings, CABAC : Yes
Format settings, Reference fra : 4 frames
Codec ID : V_MPEG4/ISO/AVC
Duration : 50 min 43 s
Bit rate : 5 044 kb/s
Width : 1 920 pixels
Height : 1 080 pixels
Display aspect ratio : 16:9
Frame rate mode : Constant
Frame rate : 25.000 FPS
Color space : YUV
Chroma subsampling : 4:2:0
Bit depth : 8 bits
Scan type : Progressive
Bits/(Pixel*Frame) : 0.097
Stream size : 1.79 GiB (89%)
Default : Yes
Forced : No

Audio #1
ID : 2
Format : E-AC-3
Format/Info : Enhanced AC-3
Commercial name : Dolby Digital Plus
Codec ID : A_EAC3
Duration : 50 min 43 s
Bit rate mode : Constant
Bit rate : 320 kb/s
Channel(s) : 6 channels
Channel layout : L R C LFE Ls Rs
Sampling rate : 48.0 kHz
Frame rate : 31.250 FPS (1536 SPF)
Compression mode : Lossy
Stream size : 116 MiB (6%)
Language : Russian
Service kind : Complete Main
Default : Yes
Forced : No

Audio #2
ID : 3
Format : E-AC-3
Format/Info : Enhanced AC-3
Commercial name : Dolby Digital Plus
Codec ID : A_EAC3
Duration : 50 min 43 s
Bit rate mode : Constant
Bit rate : 320 kb/s
Channel(s) : 6 channels
Channel layout : L R C LFE Ls Rs
Sampling rate : 48.0 kHz
Frame rate : 31.250 FPS (1536 SPF)
Compression mode : Lossy
Stream size : 116 MiB (6%)
Language : English
Service kind : Complete Main
Default : No
Forced : No

Внимание! Раздача ведётся путём добавления новых серий; при каждом добавлении создаётся новый торрент.
Чтобы начать докачку новой серии, пользователям необходимо сделать следующее:
1. Остановить скачивание;
2. Удалить старый торрент у себя из клиента (старые серии удалять не надо);
3. Скачать новый торрент и запустить его у себя в клиенте вместо старого, при этом указать клиенту путь в старую папку куда и должно происходить скачивание новых серий. Ваш клиент при этом должен произвести хеширование (проверку) старой папки и будет докачивать только те серии, которых у вас ещё нет. Старые серии при этом не удаляются, а продолжают раздаваться! Eсли вы уже удалили старые серии, то предотвратить повторную закачку старых серий можно, отжав галочку в соответствующих местах при запуске нового торрента.

piratbit.pw



Скачать Срок через торрент https://i4.imageban.ru/out/2021/06/07/f2bfd71296e5888d18803c0115a9a85e.jpg Скачать фильм Срок через торрент бесплантно в хорошем качестве Описание: Марк Кобден осужден на четыре года за неосторожное убийство, и тюремное окружение ему чуждо. Единственная отдушина для него — ... 10 10 3
Торрент: Зарегистрирован [2021-06-15 20:43] · скачан: 25 раз
Статус: √ проверено
Размер: 6.07 GB
Как cкачать? Как скачать Срок через торрент | UTorrent

% Раздел Тема Автор DL S | L
Зарубежные сериалы [ 2.26 GB ] Срок / Time / Сезон: 1 / Серии: 1-3 из 3 [2021 WEB-DLRip] MVO [The Kitchen Russia] bober100 Скачать
16 | 0

28-11-2019 20:33  

Отключить всю рекламу на сайте

    Дорогой пользователь! Огромная просьба, поблагодарите релизера, оцените раздачу и оставьте свои комментарий, если Вы скачали Срок через торрент бесплатно! Внесите свою лепту в развитие PiratBit!
    Комментировать посты могут только пользователи прошедшие не сложную регистрацию
    Показать сообщения:    

    Срок через торрент
    Скачать бесплатно Срок
    Срок скачать торрент
    Срок смотреть онлайн
    Cкачать фильм Срок бесплатно
    Срок скачать торрент в хорошем качестве
    Срок смотреть онлайн бесплатно в хорошем качестве


    Вы не можете начинать темы
    Вы не можете отвечать на сообщения
    Вы не можете редактировать свои сообщения
    Вы не можете удалять свои сообщения
    Вы не можете голосовать в опросах
    Вы не можете прикреплять файлы к сообщениям
    Вы можете скачивать файлы