1 сезон

3 сезон

iTunes

1

iTunes

DUB Netflix

iTunes

13

1 сезон

RePack

30

Deluxe

pack

Легкие деньги

ВАЖНО

ИГРА 18+

pack

RePack

MK11

RePack

jed

RePack

fifa19

RePack

RDR2

RePack

NEED FOR SPEED™ PAYBACK

4 сезон

9 сезон

Бесстыжие 9 сезон

Все сериалы

все сериалы на PB.wtf

RePack

FAR CRY 5

Anonymous, доброе утро, мы не успеваем до 1 числа собрать деньги на оплату серверов, помогите нам пожалуйста в это трудное время. В качестве благодарности мы отключим Вам всю рекламу на сайте (укажите свой ник в строку Ваше имя)!

×
  
Magnet ссылка

Локи / Loki / Сезон: 1 / Серии: 1-2 из 6 (Кейт Херрон) [2021, Фантастика, фэнтези, боевик, приключения, WEB-DL 1080p] MVO [AlexFilm] piratbit.pw

Локи через торрент piratbit.pw

Раздают: 4 [ 2 MB/s ] Качают: 21 [ 0 KB/s ]
Размер: 5.59 GB | Добавлен: 2 ч. 27 мин. назад | Торрент скачан:2 раза
Скачать  

10-06-2021 02:58 Локи Скачать торрент  

Локи | Loki
Год выпуска: 2021
Страна: США
Выпущено: Disney+
Жанр: Фантастика, фэнтези, боевик, приключения
Продолжительность: ~ 00:50:00
Перевод: Профессиональный (многоголосый) | AlexFilm
Субтитры: Русские (Forced, Full |«PhysKids»|, английские (SDH)

Режиссер: Кейт Херрон

rating

В ролях: Том Хиддлстон, Софи Ди Мартино, Ричард Э. Грант, Гугу Мбата-Роу, Вунми Моссаку, Оуэн Уилсон, Эрика Коулмэн, Саша Лэйн, Джон Ливайн, Люсиус Бастон мл. и др.

Описание: В центре сюжета находится Бог хитрости и обмана Локи, которому во время возникшей суматохи удается завладеть Тессерактом и сбежать. Не успев как следует насладиться свободой, он оказывается схвачен неизвестными солдатами, которые конвоируют его в странное и совершенно незнакомое место. Вскоре выясняется, что он попал в Управление Временными Аномалиями, где ему предстоит предстать перед судом за нарушение Священного Таймлайна. А после того, как его приговаривают к "перезапуску", Локи неожиданно находит спасение в лице агента Мёбиуса, который предлагает ему свою помощь в обмен на сотрудничество.

Качество: WEB-DL 1080p
Формат: MKV

Видео: 1920x1080 (16:9), 24 fps, ~ 5700 Kbps
Аудио №1: AC3, 48,0 kHz, 6 ch, 384 kbps | AlexFilm
Аудио №2: AC3, 48,0 kHz, 6 ch, 640 kbps | Original
Аудио №3: EAC3+Atmos, 48,0 kHz, 6 ch, 768 kbps | Original
скриншот  скриншот  скриншот  скриншот  

Complete name : D:Loki_(s01)_AlexFilm_1080pLoki.2021.S01E01.Glorious.Purpose.REPACK.1080p.DSNP.WEB-DL.DDP5.1.x264-TOMMY_EniaHD.mkv
Format : Matroska
Format version : Version 4
File size : 2.70 GiB
Duration : 51 min 30 s
Overall bit rate mode : Variable
Overall bit rate : 7 510 kb/s
Encoded date : UTC 2021-06-09 23:59:32
Writing application : mkvmerge v53.0.0 ('Fool's Gold') 64-bit
Writing library : libebml v1.4.1 + libmatroska v1.6.2

Video
ID : 1
Format : AVC
Format/Info : Advanced Video Codec
Format profile : High@L4
Format settings : CABAC / 4 Ref Frames
Format settings, CABAC : Yes
Format settings, Reference : 4 frames
Codec ID : V_MPEG4/ISO/AVC
Duration : 51 min 30 s
Bit rate mode : Variable
Bit rate : 5 716 kb/s
Maximum bit rate : 12.7 Mb/s
Width : 1 920 pixels
Height : 1 080 pixels
Display aspect ratio : 16:9
Frame rate mode : Constant
Frame rate : 24.000 FPS
Color space : YUV
Chroma subsampling : 4:2:0
Bit depth : 8 bits
Scan type : Progressive
Bits/(Pixel*Frame) : 0.115
Stream size : 2.06 GiB (76%)
Title : Release by EniaHD
Default : Yes
Forced : No
Color range : Limited
Color primaries : BT.709
Transfer characteristics : BT.709
Matrix coefficients : BT.709

Audio #1
ID : 2
Format : AC-3
Format/Info : Audio Coding 3
Commercial name : Dolby Digital
Codec ID : A_AC3
Duration : 51 min 30 s
Bit rate mode : Constant
Bit rate : 384 kb/s
Channel(s) : 6 channels
Channel layout : L R C LFE Ls Rs
Sampling rate : 48.0 kHz
Frame rate : 31.250 FPS (1536 SPF)
Compression mode : Lossy
Stream size : 141 MiB (5%)
Title : AlexFilm
Language : Russian
Service kind : Complete Main
Default : Yes
Forced : No

Audio #2
ID : 3
Format : AC-3
Format/Info : Audio Coding 3
Commercial name : Dolby Digital
Codec ID : A_AC3
Duration : 51 min 30 s
Bit rate mode : Constant
Bit rate : 640 kb/s
Channel(s) : 6 channels
Channel layout : L R C LFE Ls Rs
Sampling rate : 48.0 kHz
Frame rate : 31.250 FPS (1536 SPF)
Compression mode : Lossy
Stream size : 236 MiB (9%)
Language : English
Service kind : Complete Main
Default : No
Forced : No

Audio #3
ID : 4
Format : E-AC-3 JOC
Format/Info : Enhanced AC-3 with Joint Object Coding
Commercial name : Dolby Digital Plus with Dolby Atmos
Format settings : Dolby Surround EX
Codec ID : A_EAC3
Duration : 51 min 30 s
Bit rate mode : Constant
Bit rate : 768 kb/s
Channel(s) : 6 channels
Channel layout : L R C LFE Ls Rs
Sampling rate : 48.0 kHz
Frame rate : 31.250 FPS (1536 SPF)
Compression mode : Lossy
Stream size : 283 MiB (10%)
Language : English
Service kind : Complete Main
Default : No
Forced : No
Complexity index : 16
Number of dynamic objects : 15
Bed channel count : 1 channel
Bed channel configuration : LFE

Text #1
ID : 5
Format : UTF-8
Codec ID : S_TEXT/UTF8
Codec ID/Info : UTF-8 Plain Text
Duration : 40 min 48 s
Bit rate : 0 b/s
Count of elements : 6
Stream size : 186 Bytes (0%)
Title : Forced
Language : Russian
Default : Yes
Forced : No

Text #2
ID : 6
Format : UTF-8
Codec ID : S_TEXT/UTF8
Codec ID/Info : UTF-8 Plain Text
Duration : 50 min 12 s
Bit rate : 82 b/s
Count of elements : 585
Stream size : 30.5 KiB (0%)
Title : Full |PhysKids|
Language : Russian
Default : No
Forced : No

Text #3
ID : 7
Format : UTF-8
Codec ID : S_TEXT/UTF8
Codec ID/Info : UTF-8 Plain Text
Duration : 50 min 5 s
Bit rate : 55 b/s
Count of elements : 688
Stream size : 20.4 KiB (0%)
Title : SDH
Language : English
Default : No
Forced : No

Внимание! Раздача ведётся путём добавления новых серий; при каждом добавлении создаётся новый торрент.
Чтобы начать докачку новой серии, пользователям необходимо сделать следующее:
1. Остановить скачивание;
2. Удалить старый торрент у себя из клиента (старые серии удалять не надо);
3. Скачать новый торрент и запустить его у себя в клиенте вместо старого, при этом указать клиенту путь в старую папку куда и должно происходить скачивание новых серий. Ваш клиент при этом должен произвести хеширование (проверку) старой папки и будет докачивать только те серии, которых у вас ещё нет. Старые серии при этом не удаляются, а продолжают раздаваться! Eсли вы уже удалили старые серии, то предотвратить повторную закачку старых серий можно, отжав галочку в соответствующих местах при запуске нового торрента.

piratbit.pw



Скачать Локи через торрент https://a.radikal.ru/a39/2106/05/5a0a7f1808be.png Скачать фильм Локи через торрент бесплантно в хорошем качестве Описание: В центре сюжета находится Бог хитрости и обмана Локи, которому во время возникшей суматохи удается завладеть Тессерактом и ... 10 10 5
Торрент: Зарегистрирован [2021-06-17 03:29] · скачан: 2 раз
Статус: √ проверено
Размер: 5.59 GB
Как cкачать? Как скачать Локи через торрент | UTorrent

% Раздел Тема Автор DL S | L
Фильмы без перевода [ 4.84 GB ] Локи / Loki / Сезон: 1 / Серии: 1-2 из 6 [2021 WEB-DL 1080p] 2x [Sub] killermax2013 Скачать
7 | 6

28-11-2019 20:33  

Отключить всю рекламу на сайте


    Дорогой пользователь! Огромная просьба, поблагодарите релизера, оцените раздачу и оставьте свои комментарий, если Вы скачали Локи через торрент бесплатно! Внесите свою лепту в развитие PiratBit!
    Комментировать посты могут только пользователи прошедшие не сложную регистрацию
    Показать сообщения:    

    Локи через торрент
    Скачать бесплатно Локи
    Локи скачать торрент
    Локи смотреть онлайн
    Cкачать фильм Локи бесплатно
    Локи скачать торрент в хорошем качестве
    Локи смотреть онлайн бесплатно в хорошем качестве


    Вы не можете начинать темы
    Вы не можете отвечать на сообщения
    Вы не можете редактировать свои сообщения
    Вы не можете удалять свои сообщения
    Вы не можете голосовать в опросах
    Вы не можете прикреплять файлы к сообщениям
    Вы можете скачивать файлы