1 сезон

3 сезон

iTunes

1

iTunes

DUB Netflix

iTunes

13

1 сезон

RePack

30

Deluxe

pack

Легкие деньги

ВАЖНО

ИГРА 18+

pack

RePack

MK11

RePack

jed

RePack

fifa19

RePack

RDR2

RePack

NEED FOR SPEED™ PAYBACK

4 сезон

9 сезон

Бесстыжие 9 сезон

Все сериалы

все сериалы на PB.wtf

RePack

FAR CRY 5

Anonymous, доброй ночи, мы не успеваем до 1 числа собрать деньги на оплату серверов, помогите нам пожалуйста в это трудное время. В качестве благодарности мы отключим Вам всю рекламу на сайте (укажите свой ник в строку Ваше имя)!

×
  
Magnet ссылка

Локи / Loki / Сезон: 1 / Серии: 1-2 из 6 (Кейт Херрон) [2021, Фантастика, фэнтези, боевик, приключения, WEB-DL (HEVC)2160p, HDR] 3х[MVO] (AlexFilm, LostFilm, TVShows) piratbit.pw

Локи через торрент piratbit.pw

Раздают: 6 [ 323 KB/s ] Качают: 5 [ 0 KB/s ]
Размер: 16.87 GB | Добавлен: 2 д. 7 ч. назад | Торрент скачан:19 раз
Скачать  

09-06-2021 14:33 Локи Скачать торрент  


Локи / Loki

Год выпуска: 2021
Страна: США / Marvel Studios Inc.
Жанр: Фантастика, фэнтези, боевик, приключения
Продолжительность :1 x ~ 00:50:19
Перевод #1: Профессиональный (многоголосый закадровый) AlexFilm
Перевод #2: Профессиональный (многоголосый закадровый) LostFilm
Перевод #3: Профессиональный (многоголосый закадровый) TVShows
Субтитры: Русские (Fors, Где тексты, Лебовски?, FOCS), английские

Режиссёр: Кейт Херрон

В ролях: Том Хиддлстон, Софи Ди Мартино, Ричард Э. Грант, Гугу Мбата-Роу, Вунми Моссаку, Оуэн Уилсон, Эрика Коулмэн, Саша Лэйн, Джон Ливайн, Люсиус Бастон мл.
Описание: Локи попадает в таинственную организацию «Управление временными изменениями» после того, как он украл Тессеракт, и путешествует во времени, меняя историю.

rating
Раздача -- АКТЕР aka CEBEPu2D

Качество: WEB-DL (2160p), HDR
Формат: MKV
Видео: HEVC, ~21.6 Mбит/с, 3840x2160, 10 Бит, 24,000 fps, ~0.108 bit/pixel
Аудио Rus: AC3, 48,0 kHz, 6 ch, 384 kbps |AlexFilm|
Аудио Rus: AC3, 48,0 kHz, 6 ch, 384 kbps |LostFilm|
Аудио Rus: AC3, 48,0 kHz, 6 ch, 384 kbps |TVShows|
Аудио Eng: E-AC-3 JOC, 48 kHz, 6 ch, 768 kbps|Original|

Реклама: Отсутствует
Полное имя : H:\Loki.S01.DSNP.HDR.WEB-DL.2160p.by.AKTEP\Loki.S01E01.Glorious.Purpose.DSNP.HDR.WEB-DL.2160p.by.AKTEP.mkv
Формат : Matroska
Версия формата : Version 4 / Version 2
Размер файла : 8,36 Гбайт
Продолжительность : 51 м. 27 с.
Общий поток : 23,3 Мбит/сек
Дата кодирования : UTC 2021-06-17 14:35:04
Программа кодирования : mkvmerge v6.2.0 ('Promised Land') built on Apr 28 2013 12:22:01
Библиотека кодирования : libebml v1.3.0 + libmatroska v1.4.0

Видео
Идентификатор : 1
Формат : HEVC
Формат/Информация : High Efficiency Video Coding
Профиль формата : Main 10@L5@Main
Идентификатор кодека : V_MPEGH/ISO/HEVC
Продолжительность : 51 м. 27 с.
Битрейт : 20,6 Мбит/сек
Ширина : 3840 пикселей
Высота : 2160 пикселей
Соотношение сторон : 16:9
Режим частоты кадров : Постоянный
Частота кадров : 24,000 кадра/сек
Цветовое пространство : YUV
Субдискретизация насыщенности : 4:2:0
Битовая глубина : 10 бит
Бит/(Пиксели*Кадры) : 0.104
Размер потока : 7,41 Гбайт (89%)
Библиотека кодирования : x265 3.5:[Linux][GCC 7.5.0][64 bit] 10bit
Настройки программы : cpuid=1111039 / frame-threads=1 / wpp / no-pmode / no-pme / no-psnr / no-ssim / log-level=2 / input-csp=1 / input-res=3840x2160 / interlace=0 / total-frames=0 / level-idc=50 / high-tier=0 / uhd-bd=0 / ref=3 / no-allow-non-conformance / repeat-headers / annexb / no-aud / no-hrd / info / hash=0 / no-temporal-layers / no-open-gop / min-keyint=48 / keyint=48 / gop-lookahead=0 / bframes=2 / b-adapt=0 / b-pyramid / bframe-bias=0 / rc-lookahead=48 / lookahead-slices=8 / scenecut=0 / hist-scenecut=0 / radl=0 / splice / no-intra-refresh / ctu=32 / min-cu-size=8 / no-rect / no-amp / max-tu-size=16 / tu-inter-depth=2 / tu-intra-depth=2 / limit-tu=0 / rdoq-level=1 / dynamic-rd=0.00 / no-ssim-rd / signhide / no-tskip / nr-intra=0 / nr-inter=0 / no-constrained-intra / no-strong-intra-smoothing / max-merge=3 / limit-refs=1 / no-limit-modes / me=1 / subme=2 / merange=44 / temporal-mvp / no-frame-dup / no-hme / weightp / no-weightb / no-analyze-src-pics / deblock=0:0 / no-sao / no-sao-non-deblock / rd=4 / selective-sao=0 / early-skip / rskip / no-fast-intra / no-tskip-fast / no-cu-lossless / b-intra / no-splitrd-skip / rdpenalty=1 / psy-rd=1.60 / psy-rdoq=5.00 / no-rd-refine / no-lossless / cbqpoffs=0 / crqpoffs=0 / rc=abr / bitrate=23000 / qcomp=0.75 / qpstep=4 / stats-write=0 / stats-read=0 / vbv-maxrate=25000 / vbv-bufsize=25000 / vbv-init=0.9 / ipratio=1.40 / pbratio=1.30 / aq-mode=3 / aq-strength=1.00 / no-cutree / zone-count=0 / no-strict-cbr / qg-size=32 / no-rc-grain / qpmax=69 / qpmin=0 / no-const-vbv / sar=1 / overscan=0 / videoformat=5 / range=0 / colorprim=9 / transfer=16 / colormatrix=9 / chromaloc=0 / display-window=0 / cll=0,0 / min-luma=0 / max-luma=1023 / log2-max-poc-lsb=8 / vui-timing-info / vui-hrd-info / slices=1 / no-opt-qp-pps / no-opt-ref-list-length-pps / no-multi-pass-opt-rps / scenecut-bias=0.00 / hist-threshold=0.01 / no-opt-cu-delta-qp / no-aq-motion / no-hdr10 / hdr10-opt / no-dhdr10-opt / no-idr-recovery-sei / analysis-reuse-level=0 / analysis-save-reuse-level=0 / analysis-load-reuse-level=0 / scale-factor=0 / refine-intra=0 / refine-inter=0 / refine-mv=1 / refine-ctu-distortion=0 / no-limit-sao / ctu-info=0 / no-lowpass-dct / refine-analysis-type=0 / copy-pic=1 / max-ausize-factor=1.0 / no-dynamic-refine / no-single-sei / no-hevc-aq / no-svt / no-field / qp-adaptation-range=1.00 / no-scenecut-aware-qpconformance-window-offsets / right=0 / bottom=0
Язык : English
Default : Да
Forced : Нет
Цветовой диапазон : Limited
Основные цвета : BT.2020
Характеристики трансфера : PQ
Коэффициенты матрицы : BT.2020 non-constant

Аудио #1
Идентификатор : 2
Формат : AC-3
Формат/Информация : Audio Coding 3
Идентификатор кодека : A_AC3
Продолжительность : 51 м. 27 с.
Вид битрейта : Постоянный
Битрейт : 384 Кбит/сек
Каналы : 6 каналов
Расположение каналов : Front: L C R, Side: L R, LFE
Частота : 48,0 КГц
Частота кадров : 31,250 кадров/сек (1536 SPF)
Битовая глубина : 16 бит
Метод сжатия : С потерями
Размер потока : 141 Мбайт (2%)
Заголовок : AlexFilm
Язык : Russian
ServiceKind/String : Complete Main
Default : Да
Forced : Нет

Аудио #2
Идентификатор : 3
Формат : AC-3
Формат/Информация : Audio Coding 3
Идентификатор кодека : A_AC3
Продолжительность : 51 м. 27 с.
Вид битрейта : Постоянный
Битрейт : 640 Кбит/сек
Каналы : 6 каналов
Расположение каналов : Front: L C R, Side: L R, LFE
Частота : 48,0 КГц
Частота кадров : 31,250 кадров/сек (1536 SPF)
Битовая глубина : 16 бит
Метод сжатия : С потерями
Размер потока : 236 Мбайт (3%)
Заголовок : LostFilm
Язык : Russian
ServiceKind/String : Complete Main
Default : Нет
Forced : Нет

Аудио #3
Идентификатор : 4
Формат : AC-3
Формат/Информация : Audio Coding 3
Идентификатор кодека : A_AC3
Продолжительность : 51 м. 27 с.
Вид битрейта : Постоянный
Битрейт : 384 Кбит/сек
Каналы : 6 каналов
Расположение каналов : Front: L C R, Side: L R, LFE
Частота : 48,0 КГц
Частота кадров : 31,250 кадров/сек (1536 SPF)
Битовая глубина : 16 бит
Метод сжатия : С потерями
Размер потока : 141 Мбайт (2%)
Заголовок : TVShows
Язык : Russian
ServiceKind/String : Complete Main
Default : Нет
Forced : Нет

Аудио #4
Идентификатор : 5
Формат : E-AC-3
Формат/Информация : Enhanced Audio Coding 3
Профиль формата : E-AC-3+Atmos / E-AC-3
Идентификатор кодека : A_EAC3
Продолжительность : 51 м. 27 с.
Вид битрейта : Постоянный
Битрейт : 768 Кбит/сек
Каналы : 15 objects / 6 каналов
Расположение каналов : 15 objects / Front: L C R, Side: L R, LFE
Частота : 48,0 КГц
Частота кадров : 187,500 кадров/сек (256 SPF)
Метод сжатия : С потерями
Размер потока : 283 Мбайт (3%)
Язык : English
ServiceKind/String : Complete Main
Default : Нет
Forced : Нет

Текст #1
Идентификатор : 6
Формат : UTF-8
Идентификатор кодека : S_TEXT/UTF8
Идентификатор кодека/Информация : UTF-8 Plain Text
Заголовок : Где тексты, Лебовски?
Язык : Russian
Default : Нет
Forced : Нет

Текст #2
Идентификатор : 7
Формат : UTF-8
Идентификатор кодека : S_TEXT/UTF8
Идентификатор кодека/Информация : UTF-8 Plain Text
Заголовок : FOCS
Язык : Russian
Default : Нет
Forced : Нет

Текст #3
Идентификатор : 8
Формат : UTF-8
Идентификатор кодека : S_TEXT/UTF8
Идентификатор кодека/Информация : UTF-8 Plain Text
Язык : English
Default : Нет
Forced : Нет
скриншот  скриншот  скриншот  
Внимание! Раздача ведётся путём добавления новых серий; при каждом добавлении создаётся новый торрент. Чтобы начать докачку новой серии, пользователям необходимо сделать следующее:
(1) остановить скачивание,
(2) удалить старый торрент у себя из клиента (старые серии удалять не надо),
(3) скачать новый торрент и запустить его у себя в клиенте вместо старого, при этом указать клиенту путь в старую папку куда и должно происходить скачивание новых серий.

Ваш клиент при этом должен произвести хеширование (проверку) старой папки (если не производит сам - помогите ему сделать это), и будет докачивать только те серии которых у вас ещё нет. Старые серии при этом не удаляются, а продолжают раздаваться!

Eсли вы уже удалили старые серии, то предотвратить повторную закачку старых серий можно, отжав галочку в соответствующих местах при запуске нового торрента. По возможности, желательно не удалять старые серии как можно дольше чтобы релизёр не столько продолжал раздавать старые серии, а смог сконцентрироваться на новых.

piratbit.pw
!killermax2013 писал(а):

|AlexFilm| 1-2 серии
|LostFilm | 1 серия
|TVShows| 1 серия



Скачать Локи через торрент https://a.radikal.ru/a32/2106/c8/332a8d828b7b.jpg Скачать фильм Локи через торрент бесплантно в хорошем качестве Описание: Локи попадает в таинственную организацию «Управление временными изменениями» после того, как он украл Тессеракт, и путешествует ... 10 10 9
Торрент: Зарегистрирован [2021-06-17 16:52] · скачан: 19 раз
Статус: √ проверено
Размер: 16.87 GB
Как cкачать? Как скачать Локи через торрент | UTorrent

% Раздел Тема Автор DL S | L
Фильмы без перевода [ 4.84 GB ] Локи / Loki / Сезон: 1 / Серии: 1-2 из 6 [2021 WEB-DL 1080p] 2x [Sub] killermax2013 Скачать
4 | 1
Зарубежные сериалы [ 15.21 GB ] Локи / Loki / Сезон: 1 / Серии: 1-2 из 6 [2021 UHD WEB-DL 2160p ] 3xMVO [LostFilm AlexFilm TVShows] bober100 Скачать
6 | 4
Зарубежные сериалы [ 1.45 GB ] Локи / Loki / Сезон: 1 / Серии: 1-2 из 6 [2021 WEB-DLRip] MVO [AlexFilm] bober100 Скачать
7 | 7
Зарубежные сериалы [ 3.5 GB ] Локи / Loki / Сезон: 1 / Серии: 1-2 из 6 [2021 WEB-DL 720p] 3xMVO [LostFilm AlexFilm TVShows] bober100 Скачать
7 | 7
Зарубежные сериалы [ 1.81 GB ] Локи / Loki / Сезон: 1 / Серии: 1-2 из 6 [2021 WEB-DLRip] MVO [HDrezka Studio] bober100 Скачать
7 | 1
Зарубежные сериалы [ 3.07 GB ] Локи / Loki / Сезон: 1 / Серии: 1-2 из 6 [2021 WEBRip 1080p] 2x[MVO] + [Ukr MVO] killermax2013 Скачать
5 | 7
Зарубежные сериалы [ 5.17 GB ] Локи / Loki / Сезон: 1 / Серии: 1-2 из 6 [2021 WEB-DL 1080p] MVO [HDrezka Studio] bober100 Скачать
9 | 14


Последний раз редактировалось: killermax2013 (2021-06-17 16:53), всего редактировалось 4 раз(а)

28-11-2019 20:33  

Отключить всю рекламу на сайте

11-06-2021 06:11 Локи Скачать торрент  

кайфpiratbit.pw



    Дорогой пользователь! Огромная просьба, поблагодарите релизера, оцените раздачу и оставьте свои комментарий, если Вы скачали Локи через торрент бесплатно! Внесите свою лепту в развитие PiratBit!
    Комментировать посты могут только пользователи прошедшие не сложную регистрацию
    Показать сообщения:    

    Локи через торрент
    Скачать бесплатно Локи
    Локи скачать торрент
    Локи смотреть онлайн
    Cкачать фильм Локи бесплатно
    Локи скачать торрент в хорошем качестве
    Локи смотреть онлайн бесплатно в хорошем качестве


    Вы не можете начинать темы
    Вы не можете отвечать на сообщения
    Вы не можете редактировать свои сообщения
    Вы не можете удалять свои сообщения
    Вы не можете голосовать в опросах
    Вы не можете прикреплять файлы к сообщениям
    Вы можете скачивать файлы