1 сезон

3 сезон

iTunes

1

iTunes

DUB Netflix

iTunes

13

1 сезон

RePack

30

Deluxe

pack

Легкие деньги

ВАЖНО

ИГРА 18+

pack

RePack

MK11

RePack

jed

RePack

fifa19

RePack

RDR2

RePack

NEED FOR SPEED™ PAYBACK

4 сезон

9 сезон

Бесстыжие 9 сезон

Все сериалы

все сериалы на PB.wtf

RePack

FAR CRY 5

Anonymous, доброй ночи, мы не успеваем до 1 числа собрать деньги на оплату серверов, помогите нам пожалуйста в это трудное время. В качестве благодарности мы отключим Вам всю рекламу на сайте (укажите свой ник в строку Ваше имя)!

×
  
Magnet ссылка

UFC Fight Night 189: Rozenstruik vs. Sakai / Prelims & Main Card [05.06.2021, MMA, RU, UFC ТВ HD, IPTVRip 1080p] piratbit.pw

UFC Fight Night 189: Rozenstruik vs. Sakai через торрент piratbit.pw

Раздают: 1 [ 0 KB/s ]
Размер: 7.26 GB | Добавлен: 9 д. назад | Торрент скачан:12 раз
Скачать  

06-06-2021 15:56 UFC Fight Night 189: Rozenstruik vs. Sakai Скачать торрент  

UFC Fight Night 189: Rozenstruik vs. Sakai / Prelims & Main Card
Год выпуска: 05.06.2021
Вид спорта: MMA
Продолжительность: 04:51:47
Язык комментариев: Русский
Комментаторы: Олег Володин, Давид Багдасарян
Выпущено: Россия, UFC ТВ HD

Описание: 05 июня в Лас-Вегасе (Невада, США) на фирменной арене «UFC APEX» состоялся турнир UFC Fight Night 189. Главным событием которого стал бой в тяжелом весе между Жаирзиньо Розенстрайк и Августо Сакаи. Боец из Суринама, Розенстрайк, дебютировал в UFC два года назад и первое время создавал впечатление многообещающего проспекта. Но проигрыш нокаутом действующему чемпиону дивизиона Нганну и крайне «унылое» выступление против еще одного француза – Сирила Гана, быстро развеяли первое впечатление. С его соперником Августо Сакаи похожая картина, однако, он и вовсе не успел получить никаких авансов и уже проиграл техническим нокаутом легендарному ветерану Алистару Овериму. Со-главное событие турнира, еще один бой в королевском весе Уолт Харрис против Марчина Тыбура.

Автор релиза:
Реклама: Отсутствует

Качество: IPTVRip 1080p
Формат: MKV

Видео: MPEG-4 AVC, 1920x1080, ~ 3500 Кбит/с, 25.000 FPS
Аудио: AC3, 2 ch, 192 Кбит/с, 48.0 kHz
Предварительный кард:

Женщины, наилегчайший вес: Манон Фирот - Табата Риччи
Лёгкий вес: Алан Патрик - Мэйсон Джонс
Полулёгкий вес: Макван Амирхани - Камуэло Кёрк
Полусредний вес: Франсиско Триналдо - Муслим Салихов
Тяжёлый вес: Таннер Босер - Илир Латифи

Основной кард:

Женщины, наилегчайший вес: Монтана Де Ла Роса - Ариани Липски
Средний вес: Душко Тодорович - Грегори Родригес
Полусредний вес: Сантьяго Понзиниббио - Мигель Баеза
Средний вес: Роман Долидзе - Лауреано Старополи
Тяжёлый вес: Уолт Харрис - Марчин Тыбура
Тяжёлый вес: Жаирзиньо Розенстрайк - Августо Сакаи
скриншот  скриншот  скриншот  скриншот  
Общее
Уникальный идентификатор : 77580469766179149578356820147175485278 (0x3A5D7479B72BB670E4344CD80F00EF5E)
Полное имя : D:\UFC.(05.06.2021).1080p.7turza\01.UFC.Predvaritelnyj.Kard.7turza.mkv
Формат : Matroska
Версия формата : Version 4
Размер файла : 2,98 Гбайт
Продолжительность : 2 ч. 0 м.
Общий поток : 3549 Кбит/сек
Название фильма : 01.UFC.Predvaritelnyj.Kard.7turza
Дата кодирования : UTC 2021-06-06 04:08:17
Программа кодирования : mkvmerge v57.0.0 ('Till The End') 64-bit
Библиотека кодирования : libebml v1.4.2 + libmatroska v1.6.4
Attachments : poster.jpg

Видео
Идентификатор : 1
Формат : AVC
Формат/Информация : Advanced Video Codec
Профиль формата : Main@L4
Настройки формата : CABAC / 1 Ref Frames
Параметр CABAC формата : Да
Параметр RefFrames формата : 1 кадр
Идентификатор кодека : V_MPEG4/ISO/AVC
Продолжительность : 2 ч. 0 м.
Битрейт : 3355 Кбит/сек
Ширина : 1920 пикселей
Высота : 1080 пикселей
Соотношение сторон : 16:9
Режим частоты кадров : Постоянный
Частота кадров : 25,000 кадров/сек
Цветовое пространство : YUV
Субдискретизация насыщенности : 4:2:0
Битовая глубина : 8 бит
Тип развёртки : Прогрессивная
Бит/(Пиксели*Кадры) : 0.065
Размер потока : 2,82 Гбайт (95%)
Библиотека кодирования : x264 core 160 r3000
Настройки программы : cabac=1 / ref=1 / deblock=1:0:0 / analyse=0x1:0x111 / me=hex / subme=4 / psy=1 / psy_rd=1.00:0.00 / mixed_ref=0 / me_range=16 / chroma_me=1 / trellis=1 / 8x8dct=0 / cqm=0 / deadzone=21,11 / fast_pskip=1 / chroma_qp_offset=0 / threads=4 / lookahead_threads=1 / sliced_threads=0 / nr=0 / decimate=1 / interlaced=0 / bluray_compat=0 / constrained_intra=0 / bframes=0 / weightp=1 / keyint=125 / keyint_min=12 / scenecut=0 / intra_refresh=0 / rc_lookahead=20 / rc=abr / mbtree=1 / bitrate=1564 / ratetol=1.0 / qcomp=0.60 / qpmin=0 / qpmax=69 / qpstep=4 / vbv_maxrate=18599 / vbv_bufsize=3750 / nal_hrd=none / filler=0 / ip_ratio=1.40 / aq=1:1.00
Default : Да
Forced : Нет

Аудио
Идентификатор : 2
Формат : AC-3
Формат/Информация : Audio Coding 3
Коммерческое название : Dolby Digital
Идентификатор кодека : A_AC3
Продолжительность : 2 ч. 0 м.
Вид битрейта : Постоянный
Битрейт : 192 Кбит/сек
Каналы : 2 канала
ChannelLayout : L R
Частота : 48,0 КГц
Частота кадров : 31,250 кадров/сек (1536 SPF)
Метод сжатия : С потерями
Размер потока : 165 Мбайт (5%)
ServiceKind/String : Complete Main
Default : Да
Forced : Нет
piratbit.pw



Скачать UFC Fight Night 189: Rozenstruik vs. Sakai через торрент https://b.radikal.ru/b15/2106/13/7702b3552314.jpg Скачать фильм UFC Fight Night 189: Rozenstruik vs. Sakai через торрент бесплантно в хорошем качестве Описание: 05 июня в Лас-Вегасе (Невада, США) на фирменной арене «UFC APEX» состоялся турнир UFC Fight Night 189. Главным событием которого ... 10 10 3
Торрент: Зарегистрирован [2021-06-06 15:56] · скачан: 12 раз
Статус: √ проверено
Размер: 7.26 GB
Как cкачать? Как скачать UFC Fight Night 189: Rozenstruik vs. Sakai через торрент | UTorrent

28-11-2019 20:33  

Отключить всю рекламу на сайте

    Дорогой пользователь! Огромная просьба, поблагодарите релизера, оцените раздачу и оставьте свои комментарий, если Вы скачали UFC Fight Night 189: Rozenstruik vs. Sakai через торрент бесплатно! Внесите свою лепту в развитие PiratBit!
    Комментировать посты могут только пользователи прошедшие не сложную регистрацию
    Показать сообщения:    

    UFC Fight Night 189: Rozenstruik vs. Sakai через торрент
    Скачать бесплатно UFC Fight Night 189: Rozenstruik vs. Sakai
    UFC Fight Night 189: Rozenstruik vs. Sakai скачать торрент
    UFC Fight Night 189: Rozenstruik vs. Sakai смотреть онлайн
    Cкачать фильм UFC Fight Night 189: Rozenstruik vs. Sakai бесплатно
    UFC Fight Night 189: Rozenstruik vs. Sakai скачать торрент в хорошем качестве
    UFC Fight Night 189: Rozenstruik vs. Sakai смотреть онлайн бесплатно в хорошем качестве


    Вы не можете начинать темы
    Вы не можете отвечать на сообщения
    Вы не можете редактировать свои сообщения
    Вы не можете удалять свои сообщения
    Вы не можете голосовать в опросах
    Вы не можете прикреплять файлы к сообщениям
    Вы можете скачивать файлы