1 сезон

3 сезон

iTunes

1

iTunes

DUB Netflix

iTunes

13

1 сезон

RePack

30

Deluxe

pack

Легкие деньги

ВАЖНО

ИГРА 18+

pack

RePack

MK11

RePack

jed

RePack

fifa19

RePack

RDR2

RePack

NEED FOR SPEED™ PAYBACK

4 сезон

9 сезон

Бесстыжие 9 сезон

Все сериалы

все сериалы на PB.wtf

RePack

FAR CRY 5

Anonymous, доброй ночи, мы не успеваем до 1 числа собрать деньги на оплату серверов, помогите нам пожалуйста в это трудное время. В качестве благодарности мы отключим Вам всю рекламу на сайте (укажите свой ник в строку Ваше имя)!

×
  
Magnet ссылка

Сопротивление / Resistance (Хонатан Якубович) [2020, Драма, военный, биография, история, HDRip-AVC] DUB [IVI] от MediaBit piratbit.pw

Сопротивление через торрент piratbit.pw

Раздают: 19 [ 125 KB/s ]
Размер: 2.05 GB | Добавлен: 9 д. назад | Торрент скачан:154 раза
Скачать  

06-06-2021 13:36 Сопротивление Скачать торрент  


Сопротивление / Resistance
Информация о фильме:
Название: Сопротивление
Оригинальное название: Resistance
Год выхода: 2020
Жанр: Драма, военный, биография, реальные события
Режиссер: Хонатан Якубович

В ролях: Джесси Айзенберг, Эд Харрис, Эдгар Рамирес, Клеманс Поэзи, Маттиас Швайгхефер, Белла Рэмси, Геза Рёриг, Карл Маркович, Феликс Моати, Алисия фон Риттберг

Описание: Реальная история о знаменитом французском актере-миме Марселе Марсо, который во время Второй мировой войны участвовал в Сопротивлении. Потеряв в Освенциме своего отца и большинство родственников, Марсель пытается противостоять немецким оккупантам. Рискуя собой, он спасает тысячи еврейских детей. В этом ему помогает его комедийный талант, искусство пантомимы и новые соратники.



Страна: Франция, США, Германия, Великобритания
Студия: Bliss Media, Ingenious Media, Pantaleon Films, Vertical Media
Продолжительность: 02:01:20
Перевод: Дублированное - IVI



Информация о файле:
Кодек: AVC
Формат: MKV
Качество: HDRip-AVC
Видео: MPEG-4 AVC, 1024x428, 23.976 fps, 1585kbps
Аудио RU: AC3, 6 ch, 48 kHz, 384 kbps
Аудио EN: AC3, 6 ch, 48 kHz, 448 kbps
Субтитры: English
Навигация по главам: Да

264 info: frame I:1477 Avg QP:12.83 size: 81825
x264 info: frame P:37961 Avg QP:16.49 size: 20566
x264 info: frame B:135116 Avg QP:20.14 size: 4005
General
Unique ID : 148106216026619914276400771531359889667 (0x6F6C383A4C428159188A2788C4DBA903)
Complete name : D:uTorrentРипы_от_wolf1245_MediaBitResistance..DUB.IVI.HDRip-AVC.[wolf1245.MediaBit].mkv
Format : Matroska
Format version : Version 4
File size : 2.05 GiB
Duration : 2 h 1 min
Overall bit rate : 2 419 kb/s
Movie name : Resistance..DUB.IVI.HDRip-AVC.[wolf1245.MediaBit]
Encoded date : UTC 2021-06-06 13:24:21
Writing application : mkvmerge v57.0.0 ('Till The End') 64-bit
Writing library : libebml v1.4.2 + libmatroska v1.6.4
Video
ID : 1
Format : AVC
Format/Info : Advanced Video Codec
Format profile : High@L4.1
Format settings : CABAC / 14 Ref Frames
Format settings, CABAC : Yes
Format settings, Reference frames : 14 frames
Codec ID : V_MPEG4/ISO/AVC
Duration : 2 h 1 min
Bit rate : 1 585 kb/s
Width : 1 024 pixels
Height : 428 pixels
Display aspect ratio : 2.40:1
Frame rate mode : Constant
Frame rate : 23.976 (24000/1001) FPS
Color space : YUV
Chroma subsampling : 4:2:0
Bit depth : 8 bits
Scan type : Progressive
Bits/(Pixel*Frame) : 0.151
Stream size : 1.34 GiB (66%)
Title : .[wolf1245.MediaBit]
Writing library : x264 core 157 r2958 57baac4
Encoding settings : cabac=1 / ref=14 / deblock=1:-3:-3 / analyse=0x3:0x133 / me=umh / subme=11 / psy=1 / psy_rd=1.00:0.07 / mixed_ref=1 / me_range=48 / chroma_me=1 / trellis=2 / 8x8dct=1 / cqm=0 / deadzone=21,11 / fast_pskip=1 / chroma_qp_offset=-3 / threads=10 / lookahead_threads=2 / sliced_threads=0 / nr=0 / decimate=1 / interlaced=0 / bluray_compat=0 / constrained_intra=0 / bframes=12 / b_pyramid=2 / b_adapt=2 / b_bias=0 / direct=3 / weightb=1 / open_gop=0 / weightp=2 / keyint=240 / keyint_min=24 / scenecut=40 / intra_refresh=0 / rc_lookahead=60 / rc=2pass / mbtree=1 / bitrate=1585 / ratetol=1.0 / qcomp=0.60 / qpmin=0 / qpmax=69 / qpstep=4 / cplxblur=20.0 / qblur=0.5 / vbv_maxrate=50000 / vbv_bufsize=62500 / nal_hrd=none / filler=0 / ip_ratio=1.40 / aq=1:0.80
Language : English
Default : Yes
Forced : No
Color range : Limited
Color primaries : BT.709
Transfer characteristics : BT.709
Matrix coefficients : BT.709
Audio #1
ID : 2
Format : AC-3
Format/Info : Audio Coding 3
Commercial name : Dolby Digital
Codec ID : A_AC3
Duration : 2 h 1 min
Bit rate mode : Constant
Bit rate : 384 kb/s
Channel(s) : 6 channels
Channel layout : L R C LFE Ls Rs
Sampling rate : 48.0 kHz
Frame rate : 31.250 FPS (1536 SPF)
Bit depth : 16 bits
Compression mode : Lossy
Stream size : 333 MiB (16%)
Title : DUB | (IVI)
Language : Russian
Service kind : Complete Main
Default : Yes
Forced : No
Audio #2
ID : 3
Format : AC-3
Format/Info : Audio Coding 3
Commercial name : Dolby Digital
Codec ID : A_AC3
Duration : 2 h 1 min
Bit rate mode : Constant
Bit rate : 448 kb/s
Channel(s) : 6 channels
Channel layout : L R C LFE Ls Rs
Sampling rate : 48.0 kHz
Frame rate : 31.250 FPS (1536 SPF)
Bit depth : 16 bits
Compression mode : Lossy
Stream size : 389 MiB (19%)
Title : Original
Language : English
Service kind : Complete Main
Default : No
Forced : No
Text #1
ID : 4
Format : UTF-8
Codec ID : S_TEXT/UTF8
Codec ID/Info : UTF-8 Plain Text
Duration : 1 h 51 min
Bit rate : 32 b/s
Count of elements : 973
Stream size : 26.2 KiB (0%)
Title : Full
Language : English
Default : Yes
Forced : No
Text #2
ID : 5
Format : UTF-8
Codec ID : S_TEXT/UTF8
Codec ID/Info : UTF-8 Plain Text
Duration : 1 h 59 min
Bit rate : 34 b/s
Count of elements : 1234
Stream size : 30.6 KiB (0%)
Title : SDH
Language : English
Default : No
Forced : No
Menu
00:00:00.000 : :Chapter 01
00:10:10.193 : :Chapter 02
00:22:19.964 : :Chapter 03
00:32:50.302 : :Chapter 04
00:40:27.175 : :Chapter 05
00:51:29.920 : :Chapter 06
01:00:17.239 : :Chapter 07
01:12:19.669 : :Chapter 08
01:21:58.038 : :Chapter 09
01:33:52.377 : :Chapter 10
01:46:57.119 : :Chapter 11
01:55:20.330 : :Chapter 12
Релиз от: &
Автор релиза:
piratbit.pw



Скачать Сопротивление через торрент https://i114.fastpic.ru/big/2021/0606/cc/653a9ffe62aa52e9bc9f07a09624e8cc.png Скачать фильм Сопротивление через торрент бесплантно в хорошем качестве Описание: Реальная история о знаменитом французском актере-миме Марселе Марсо, который во время Второй мировой войны участвовал в ... 10 10 5
Торрент: Зарегистрирован [2021-06-06 13:36] · скачан: 154 раз
Статус: √ проверено
Размер: 2.05 GB
Как cкачать? Как скачать Сопротивление через торрент | UTorrent

28-11-2019 20:33  

Отключить всю рекламу на сайте

    Дорогой пользователь! Огромная просьба, поблагодарите релизера, оцените раздачу и оставьте свои комментарий, если Вы скачали Сопротивление через торрент бесплатно! Внесите свою лепту в развитие PiratBit!
    Комментировать посты могут только пользователи прошедшие не сложную регистрацию
    Показать сообщения:    

    Сопротивление через торрент
    Скачать бесплатно Сопротивление
    Сопротивление скачать торрент
    Сопротивление смотреть онлайн
    Cкачать фильм Сопротивление бесплатно
    Сопротивление скачать торрент в хорошем качестве
    Сопротивление смотреть онлайн бесплатно в хорошем качестве


    Вы не можете начинать темы
    Вы не можете отвечать на сообщения
    Вы не можете редактировать свои сообщения
    Вы не можете удалять свои сообщения
    Вы не можете голосовать в опросах
    Вы не можете прикреплять файлы к сообщениям
    Вы можете скачивать файлы