1 сезон

3 сезон

iTunes

1

iTunes

DUB Netflix

iTunes

13

1 сезон

RePack

30

Deluxe

pack

Легкие деньги

ВАЖНО

ИГРА 18+

pack

RePack

MK11

RePack

jed

RePack

fifa19

RePack

RDR2

RePack

NEED FOR SPEED™ PAYBACK

4 сезон

9 сезон

Бесстыжие 9 сезон

Все сериалы

все сериалы на PB.wtf

RePack

FAR CRY 5

Anonymous, доброй ночи, мы не успеваем до 1 числа собрать деньги на оплату серверов, помогите нам пожалуйста в это трудное время. В качестве благодарности мы отключим Вам всю рекламу на сайте (укажите свой ник в строку Ваше имя)!

×
  
Magnet ссылка

Эон Флакс / Aeon Flux (Карин Кусама) [2005 г., фантастика, боевик, триллер, приключения, WEB-DLRip 720p / 60 FPS, Дубляж] ( Open Matte ) от R.G. HD-Films piratbit.pw

Эон Флакс через торрент piratbit.pw

Раздают: 12 [ 0 KB/s ]
Размер: 4.16 GB | Добавлен: 9 д. назад | Торрент скачан:130 раз
Скачать  

06-06-2021 11:46 Эон Флакс Скачать торрент  

Эон Флакс / Aeon Flux
Год выпуска: 2005
Страна: США
Жанр: фантастика, боевик, триллер, приключения
Продолжительность: 01:32:44
Перевод: Дубляж
Субтитры: Russian, English

Режиссер: Карин Кусама

Бюджет: $62 000 000
Премьера в мире: 1 декабря 2005

rating

В ролях: Шарлиз Терон, Мартон Чокаш, Джонни Ли Миллер, Софи Оконедо, Фрэнсис МакДорманд, Пит Постлтуэйт, Амелия Уорнер, Кэролайн Чикези, Николай Кински, Патерсон Джозеф, Янгзом Брауен, Aoibheann O'Hara, Томас Хубер, Weijian Liu, Maverick Queck, Ральф Херфорт, Меган Гэй

Описание: Действие фильма происходит в будущем, когда после эпидемии 2011 г. погибло 99 % населения Земли. После разработки доктором Гудчайлдом вакцины оставшиеся несколько миллионов человек основали город Брегну, где на протяжении 400 лет правит технократическая династия Гудчайлдов. Над городом передвигается летающий объект — реликл, который служит напоминанием об эпидемии. В городе действует мятежная организация «мониканцев», члены которой считают режим Гудчайлдов нелегитимным, обвиняя его в подавлении свободы и убийствах инакомыслящих. Кроме того, у жителей города появляются странные воспоминания о событиях, которых не было....

Качество: WEB-DLRip 720p / 60 FPS
Формат: MKV
Видео кодек: H.264
Аудио кодек: AC3
Видео: x264, 1280 x 720 ( 16:9 ), 6027 kbps, 60,000 fps, ( 0.109 bpp)
Аудио#1: Русский, AC-3, 48.0 KHz, 6 ch, 384 Kbps
Релиз от: Автор рипа: slaventi-69
x264 [info]: frame I:2333 Avg QP:16.33 size:105672
x264 [info]: frame P:88199 Avg QP:16.93 size: 24102
x264 [info]: frame B:243329 Avg QP:20.15 size: 7480
x264 [info]: consecutive B-frames: 5.4% 3.9% 9.5% 15.0% 55.4% 10.8%


Общее
Уникальный идентификатор : 126280462317299155604531037118130029033 (0x5F00BB7D0BAF0B4F301B44A4928001E9)
Полное имя : F:\60 FPS\Aeon.Flux.(2005).WEB-DLRip.720p.(60 Fps).(Open Matte).mkv
Формат : Matroska
Версия формата : Version 4
Размер файла : 4,16 Гбайт
Продолжительность : 1 ч. 32 м.
Общий поток : 6416 Кбит/сек
Название фильма : Эон Флакс / Aeon Flux (2005) WEB-DLRip 720p (60 Fps) | Open Matte
Дата кодирования : UTC 2021-06-06 11:16:37
Программа кодирования : mkvmerge v56.1.0 ('My Friend') 32-bit
Библиотека кодирования : libebml v1.4.2 + libmatroska v1.6.4

Видео
Идентификатор : 1
Формат : AVC
Формат/Информация : Advanced Video Codec
Профиль формата : High@L4.1
Настройки формата : CABAC / 8 Ref Frames
Параметр CABAC формата : Да
Параметр RefFrames формата : 8 кадров
Идентификатор кодека : V_MPEG4/ISO/AVC
Продолжительность : 1 ч. 32 м.
Битрейт : 6027 Кбит/сек
Ширина : 1280 пикселей
Высота : 720 пикселей
Соотношение сторон : 16:9
Режим частоты кадров : Постоянный
Частота кадров : 60,000 кадров/сек
Цветовое пространство : YUV
Субдискретизация насыщенности : 4:2:0
Битовая глубина : 8 бит
Тип развёртки : Прогрессивная
Бит/(Пиксели*Кадры) : 0.109
Размер потока : 3,90 Гбайт (94%)
Заголовок : slaventi-69 ( R.G. HD-Films | 60 fps )
Библиотека кодирования : x264 core 130 r2273 b3065e6
Настройки программы : cabac=1 / ref=9 / deblock=1:-3:-3 / analyse=0x3:0x133 / me=umh / subme=9 / psy=1 / psy_rd=1.00:0.00 / mixed_ref=1 / me_range=32 / chroma_me=1 / trellis=2 / 8x8dct=1 / cqm=0 / deadzone=21,11 / fast_pskip=0 / chroma_qp_offset=-2 / threads=8 / lookahead_threads=4 / sliced_threads=0 / nr=0 / decimate=1 / interlaced=0 / bluray_compat=0 / constrained_intra=0 / bframes=5 / b_pyramid=1 / b_adapt=2 / b_bias=0 / direct=2 / weightb=1 / open_gop=0 / weightp=2 / keyint=600 / keyint_min=23 / scenecut=40 / intra_refresh=0 / rc=crf / mbtree=0 / crf=17.5 / qcomp=0.60 / qpmin=0 / qpmax=69 / qpstep=4 / ip_ratio=1.40 / pb_ratio=1.30 / aq=1:1.00
Язык : English
Default : Да
Forced : Нет

Аудио
Идентификатор : 2
Формат : AC-3
Формат/Информация : Audio Coding 3
Коммерческое название : Dolby Digital
Идентификатор кодека : A_AC3
Продолжительность : 1 ч. 32 м.
Вид битрейта : Постоянный
Битрейт : 384 Кбит/сек
Каналы : 6 каналов
Channel layout : L R C LFE Ls Rs
Частота : 48,0 КГц
Частота кадров : 31,250 кадров/сек (1536 SPF)
Битовая глубина : 16 бит
Метод сжатия : С потерями
Размер потока : 255 Мбайт (6%)
Заголовок : Dub
Язык : Russian
ServiceKind/String : Complete Main
Default : Да
Forced : Нет

Текст #1
Идентификатор : 3
Формат : UTF-8
Идентификатор кодека : S_TEXT/UTF8
Идентификатор кодека/Информация : UTF-8 Plain Text
Продолжительность : 1 ч. 24 м.
Битрейт : 55 бит/сек
ElementCount : 724
Размер потока : 34,3 Кбайт (0%)
Язык : Russian
Default : Нет
Forced : Нет

Текст #2
Идентификатор : 4
Формат : UTF-8
Идентификатор кодека : S_TEXT/UTF8
Идентификатор кодека/Информация : UTF-8 Plain Text
Продолжительность : 1 ч. 23 м.
Битрейт : 36 бит/сек
ElementCount : 722
Размер потока : 22,6 Кбайт (0%)
Язык : English
Default : Нет
Forced : Нет

Текст #3
Идентификатор : 5
Формат : UTF-8
Идентификатор кодека : S_TEXT/UTF8
Идентификатор кодека/Информация : UTF-8 Plain Text
Продолжительность : 1 ч. 24 м.
Битрейт : 39 бит/сек
ElementCount : 807
Размер потока : 24,5 Кбайт (0%)
Заголовок : SDH
Язык : English
Default : Нет
Forced : Нет

Просьба к переливающим на другие сайты, в оформлении указывайте пожалуйста авторство группы R.G. HD-Films piratbit.pw



Скачать Эон Флакс через торрент https://a.radikal.ru/a25/1908/fe/42ee2fc3b045.jpg Скачать фильм Эон Флакс через торрент бесплантно в хорошем качестве Описание: Действие фильма происходит в будущем, когда после эпидемии 2011 г. погибло 99 % населения Земли. После разработки доктором ... 10 10 8
Info! Золотая раздача, скачанное не засчитывается.
Торрент: Зарегистрирован [2021-06-06 11:46] · скачан: 130 раз
Статус: √ проверено
Размер: 4.16 GB
Как cкачать? Как скачать Эон Флакс через торрент | UTorrent

28-11-2019 20:33  

Отключить всю рекламу на сайте

06-06-2021 13:04 Эон Флакс Скачать торрент  

Раздача стала золотой благодаря:
NLZ(5000)


Спасибо за Золото, смотрите в удовольствие.piratbit.pw



    Дорогой пользователь! Огромная просьба, поблагодарите релизера, оцените раздачу и оставьте свои комментарий, если Вы скачали Эон Флакс через торрент бесплатно! Внесите свою лепту в развитие PiratBit!
    Комментировать посты могут только пользователи прошедшие не сложную регистрацию
    Показать сообщения:    

    Эон Флакс через торрент
    Скачать бесплатно Эон Флакс
    Эон Флакс скачать торрент
    Эон Флакс смотреть онлайн
    Cкачать фильм Эон Флакс бесплатно
    Эон Флакс скачать торрент в хорошем качестве
    Эон Флакс смотреть онлайн бесплатно в хорошем качестве


    Вы не можете начинать темы
    Вы не можете отвечать на сообщения
    Вы не можете редактировать свои сообщения
    Вы не можете удалять свои сообщения
    Вы не можете голосовать в опросах
    Вы не можете прикреплять файлы к сообщениям
    Вы можете скачивать файлы