1 сезон

3 сезон

iTunes

1

iTunes

DUB Netflix

iTunes

13

1 сезон

RePack

30

Deluxe

pack

Легкие деньги

ВАЖНО

ИГРА 18+

pack

RePack

MK11

RePack

jed

RePack

fifa19

RePack

RDR2

RePack

NEED FOR SPEED™ PAYBACK

4 сезон

9 сезон

Бесстыжие 9 сезон

Все сериалы

все сериалы на PB.wtf

RePack

FAR CRY 5

Anonymous, доброй ночи, мы не успеваем до 1 числа собрать деньги на оплату серверов, помогите нам пожалуйста в это трудное время. В качестве благодарности мы отключим Вам всю рекламу на сайте (укажите свой ник в строку Ваше имя)!

×
  
Magnet ссылка

Сопротивление / Resistance (Хонатан Якубович) [2020, драма, военный, биография, история, BDRip 1080p] [Dub] (IVI) piratbit.pw

Сопротивление через торрент piratbit.pw

Раздают: 7 [ 241 KB/s ] Качают: 1 [ 0 KB/s ]
Размер: 11.87 GB | Добавлен: 9 д. назад | Торрент скачан:96 раз
Скачать  

06-06-2021 10:37 Сопротивление Скачать торрент  

Сопротивление / Resistance Год выпуска: 2020
Страна: Великобритания, Франция, Германия, США
Жанр: драма, военный, биография, история
Продолжительность: 02:01:21
Перевод: Профессиональный (дублированный) *IVI
Субтитры: английские

Режиссер: Хонатан Якубович / onathan Jakubowicz

В ролях: Джесси Айзенберг, Эд Харрис, Эдгар Рамирес, Клеманс Поэзи, Маттиас Швайгхёфер, Белла Рэмси, Геза Рёриг, Карл Маркович, Феликс Моати, Алисия фон Риттберг


Описание: После оккупации Франции нацистами начинающий мим Марсель Марсо, пытаясь добиться расположения красавицы Эммы, вступает в ряды Сопротивления. Там он берется провернуть опасную операцию: спасти группу еврейских сирот из рук нацистов, переправив их через горы и леса Швейцарии.

rating

Сэмпл: https://disk.yandex.ru/i/qadH6IQxeswINA

Тип релиза: BDRip 1080p
Контейнер: MKV
Видео: 13,0 Мбит/сек 1920x804 (2,40:1) 23, 976 кадров/сек, AVC (High@L4.1) (CABAC/ 5 Ref Framers)
Аудио: Russian, 384 кбит/сек 48,0 КГц 6 каналов АС-3
Аудио 2: English, 640 кбит/сек 48,0 КГц 6 каналов АС-3
Общее
Уникальный идентификатор : 242353918190104255196105170593188326454 (0xB653AAB498CCCB4585901766E9BEAC36)
Полное имя : D:\НОВЫЕ РАЗДАЧИ\Soprotivlenie.2020.BDRip.1080p.ELEKTRI4KA.UNIONGANG.mkv
Формат : Matroska
Версия формата : Version 4
Размер файла : 11,9 Гбайт
Продолжительность : 2 ч. 1 м.
Общий поток : 14,0 Мбит/сек
Название фильма : Soprotivlenie.2020.BDRip.1080p.ELEKTRI4KA.UNIONGANG.
Дата кодирования : UTC 2021-06-05 22:02:28
Программа кодирования : mkvmerge v8.3.0 ('Over the Horizon') 64bit
Библиотека кодирования : libebml v1.3.1 + libmatroska v1.4.2

Видео
Идентификатор : 1
Формат : AVC
Формат/Информация : Advanced Video Codec
Профиль формата : High@L4.1
Настройки формата : CABAC / 5 Ref Frames
Параметр CABAC формата : Да
Параметр RefFrames формата : 5 кадров
Идентификатор кодека : V_MPEG4/ISO/AVC
Продолжительность : 2 ч. 1 м.
Битрейт : 13,0 Мбит/сек
Ширина : 1 920 пикселей
Высота : 804 пикселя
Соотношение сторон : 2,40:1
Режим частоты кадров : Постоянный
Частота кадров : 23,976 (24000/1001) кадра/сек
Цветовое пространство : YUV
Субдискретизация насыщенности : 4:2:0
Битовая глубина : 8 бит
Тип развёртки : Прогрессивная
Бит/(Пиксели*Кадры) : 0.351
Размер потока : 11,0 Гбайт (93%)
Библиотека кодирования : x264 core 161 r3015+58M ~ Encoded by Mocunaman in Portugal
Настройки программы : cabac=1 / ref=5 / deblock=1:-3:-3 / analyse=0x3:0x113 / me=umh / subme=11 / psy=1 / fade_compensate=0.00 / psy_rd=1.00:0.00 / mixed_ref=1 / me_range=32 / chroma_me=1 / trellis=2 / 8x8dct=1 / cqm=0 / deadzone=21,11 / fast_pskip=0 / chroma_qp_offset=-2 / threads=25 / lookahead_threads=6 / sliced_threads=0 / nr=0 / decimate=0 / interlaced=0 / bluray_compat=0 / constrained_intra=0 / fgo=0 / bframes=12 / b_pyramid=2 / b_adapt=2 / b_bias=0 / direct=3 / weightb=1 / open_gop=0 / weightp=2 / keyint=250 / keyint_min=23 / scenecut=40 / intra_refresh=0 / rc_lookahead=60 / rc=crf / mbtree=0 / crf=16.5000 / qcomp=0.60 / qpmin=0:0:0 / qpmax=69:69:69 / qpstep=4 / vbv_maxrate=62500 / vbv_bufsize=78125 / crf_max=0.0 / nal_hrd=none / filler=0 / ip_ratio=1.30 / pb_ratio=1.20 / aq=3:0.80 / aq-sensitivity=10.00 / aq-factor=1.00:1.00:1.00 / aq2=0 / aq3=0 / zones=4248,11879,crf=15.5/17808,18037,crf=15.5/32493,32815,crf=15.5/54328,58168,crf=15.5/61524,68964,crf=15.5/70671,74264,crf=15.5/82568,84807,crf=15.5/86724,95132,crf=15.5/104396,105092,crf=15.5/105884,109930,crf=15.5/115469,117913,crf=15.5/140689,157489,crf=15/160585,165913,crf=15.5
Язык : English
Default : Да
Forced : Нет
Цветовой диапазон : Limited
Основные цвета : BT.709
Характеристики трансфера : BT.709
Коэффициенты матрицы : BT.709

Аудио #1
Идентификатор : 2
Формат : AC-3
Формат/Информация : Audio Coding 3
Коммерческое название : Dolby Digital
Идентификатор кодека : A_AC3
Продолжительность : 2 ч. 1 м.
Вид битрейта : Постоянный
Битрейт : 384 Кбит/сек
Каналы : 6 каналов
Channel layout : L R C LFE Ls Rs
Частота : 48,0 КГц
Частота кадров : 31,250 кадров/сек (1536 SPF)
Метод сжатия : С потерями
Размер потока : 333 Мбайт (3%)
Заголовок : DUB (IVI)
Язык : Russian
Service kind : Complete Main
Default : Да
Forced : Да

Аудио #2
Идентификатор : 3
Формат : AC-3
Формат/Информация : Audio Coding 3
Коммерческое название : Dolby Digital
Идентификатор кодека : A_AC3
Продолжительность : 2 ч. 1 м.
Вид битрейта : Постоянный
Битрейт : 640 Кбит/сек
Каналы : 6 каналов
Channel layout : L R C LFE Ls Rs
Частота : 48,0 КГц
Частота кадров : 31,250 кадров/сек (1536 SPF)
Метод сжатия : С потерями
Размер потока : 555 Мбайт (5%)
Заголовок : Original
Язык : English
Service kind : Complete Main
Default : Нет
Forced : Нет

Текст #1
Идентификатор : 4
Формат : UTF-8
Идентификатор кодека : S_TEXT/UTF8
Идентификатор кодека/Информация : UTF-8 Plain Text
Продолжительность : 1 ч. 51 м.
Битрейт : 32 бит/сек
Count of elements : 973
Размер потока : 26,2 Кбайт (0%)
Заголовок : Full
Язык : English
Default : Да
Forced : Нет

Текст #2
Идентификатор : 5
Формат : UTF-8
Идентификатор кодека : S_TEXT/UTF8
Идентификатор кодека/Информация : UTF-8 Plain Text
Продолжительность : 1 ч. 59 м.
Битрейт : 34 бит/сек
Count of elements : 1234
Размер потока : 30,6 Кбайт (0%)
Заголовок : SDH
Язык : English
Default : Нет
Forced : Нет

Меню
00:00:00.000 : en:Chapter 01
00:10:10.193 : en:Chapter 02
00:22:19.964 : en:Chapter 03
00:32:50.302 : en:Chapter 04
00:40:27.175 : en:Chapter 05
00:51:29.920 : en:Chapter 06
01:00:17.239 : en:Chapter 07
01:12:19.669 : en:Chapter 08
01:21:58.038 : en:Chapter 09
01:33:52.377 : en:Chapter 10
01:46:57.119 : en:Chapter 11
01:55:20.330 : en:Chapter 12
скриншот   скриншот   скриншот  
piratbit.pw



Скачать Сопротивление через торрент https://b.radikal.ru/b17/2106/92/ebf8b5da8075.jpg Скачать фильм Сопротивление через торрент бесплантно в хорошем качестве Описание: После оккупации Франции нацистами начинающий мим Марсель Марсо, пытаясь добиться расположения красавицы Эммы, вступает в ряды ... 10 10 5
Торрент: Зарегистрирован [2021-06-06 10:37] · скачан: 96 раз
Статус: √ проверено
Размер: 11.87 GB
Как cкачать? Как скачать Сопротивление через торрент | UTorrent

% Раздел Тема Автор DL S | L
Фильмы 2019-2020 [DVDrip, WEB-DLRip, HDrip] (DUB, MVO) [ 2.05 GB ] Сопротивление / Resistance [2020 военный биография история HDRip-AVC] DUB [IVI] от MediaBit Lithuania Скачать
24 | 0
T Фильмы (мультфильмы) cо спонсором показа (Новинки AVI/MKV) [ 1.37 GB ] Сопротивление / Resistance [2020 военный биография история WEB-DLRip] MVO [@MUZOBOZ@] bober100 Скачать
3 | 0
T Фильмы (мультфильмы) cо спонсором показа (Новинки AVI/MKV) [ 7.19 GB ] Сопротивление / Resistance [2020 военный биография история WEB-DL 1080p] MVO [@MUZOBOZ@] bober100 Скачать
1 | 0
T Фильмы (мультфильмы) cо спонсором показа (Новинки AVI/MKV) [ 5.61 GB ] Сопротивление / Resistance [2020 военный биография история WEB-DL 720p] MVO [@MUZOBOZ@] bober100 Скачать
2 | 0
T Фильмы (мультфильмы) cо спонсором показа (Новинки AVI/MKV) [ 2.05 GB ] Сопротивление / Resistance [2020 военный биография история WEB-DLRip] MVO [@MUZOBOZ@] bober100 Скачать
1 | 0
Мультсериалы [ 10.75 GB ] Звездные войны: Сопротивление / Star Wars Resistance / Сезон: 1-2 из 2 / Серии: 1-38 из 38 [2018-2019 мультипликация WEB-DLRip] MVO LostFilm qwerty1234 Скачать
2 | 0
Мультсериалы [ 18.24 GB ] Звёздные войны: Сопротивление / Star Wars: Resistance / Сезон: 1 / Серии: 1-20 из 20 [2018 WEB-DL 1080p] DUB [Невафильм] bober100 Скачать
1 | 0

28-11-2019 20:33  

Отключить всю рекламу на сайте

    Дорогой пользователь! Огромная просьба, поблагодарите релизера, оцените раздачу и оставьте свои комментарий, если Вы скачали Сопротивление через торрент бесплатно! Внесите свою лепту в развитие PiratBit!
    Комментировать посты могут только пользователи прошедшие не сложную регистрацию
    Показать сообщения:    

    Сопротивление через торрент
    Скачать бесплатно Сопротивление
    Сопротивление скачать торрент
    Сопротивление смотреть онлайн
    Cкачать фильм Сопротивление бесплатно
    Сопротивление скачать торрент в хорошем качестве
    Сопротивление смотреть онлайн бесплатно в хорошем качестве


    Вы не можете начинать темы
    Вы не можете отвечать на сообщения
    Вы не можете редактировать свои сообщения
    Вы не можете удалять свои сообщения
    Вы не можете голосовать в опросах
    Вы не можете прикреплять файлы к сообщениям
    Вы можете скачивать файлы