1 сезон

3 сезон

iTunes

1

iTunes

DUB Netflix

iTunes

13

1 сезон

RePack

30

Deluxe

pack

Легкие деньги

ВАЖНО

ИГРА 18+

pack

RePack

MK11

RePack

jed

RePack

fifa19

RePack

RDR2

RePack

NEED FOR SPEED™ PAYBACK

4 сезон

9 сезон

Бесстыжие 9 сезон

Все сериалы

все сериалы на PB.wtf

RePack

FAR CRY 5

Anonymous, доброй ночи, мы не успеваем до 1 числа собрать деньги на оплату серверов, помогите нам пожалуйста в это трудное время. В качестве благодарности мы отключим Вам всю рекламу на сайте (укажите свой ник в строку Ваше имя)!

×
  
Magnet ссылка

Прогулка. Наездница. Родео. / Walk. Ride. Rodeo. (Конор Эллин) [2019, Драма, биография, WEB-DLRip-AVC] MVO [HDRezka Studio] от MediaBit piratbit.pw

Прогулка. Наездница. Родео. через торрент piratbit.pw

Раздают: 3 [ 0 KB/s ]
Размер: 2.05 GB | Добавлен: 9 д. назад | Торрент скачан:25 раз
Скачать  

06-06-2021 06:47 Прогулка. Наездница. Родео. Скачать торрент  


Прогулка. Наездница. Родео. / Walk. Ride. Rodeo.
Информация о фильме:
Название: Прогулка. Наездница. Родео.
Оригинальное название: Walk. Ride. Rodeo.
Год выхода: 2019
Жанр: Драма, биография
Режиссер: Конор Эллин

В ролях: Спенсер Лок, Мисси Пайл, Бэйли Чейз, Аливия Элин Линд, Митчелл Хуг, Ралей Кэйн, Боб Джессер, Лорри Оливер, Кеннет Миллер
Описание: Фильм основан на реальных событиях. В 19-летнем возрасте Эмберли Снайдер, звезда родео, попала в автомобильную катастрофу, чудом оставшись в живых. После аварии она оказалась парализованной ниже талии, а врачи говорили, что она не сможет больше ходить. Однако неутешительные прогнозы докторов лишь раззадорили прикованную к инвалидному креслу девушку, которая пообещала вновь сесть на лошадь и вернуться в мир конного спорта.

rating

Страна: США
Студия: Pokeprod
Продолжительность: 01:39:50
Перевод: Профессиональный (многоголосый, закадровый) - HDRezka Studio



Информация о файле:
Кодек: AVC
Формат: MKV
Качество: WEB-DLRip-AVC
Видео: MPEG-4 AVC, 1024x512, 24.000 fps, 2106 kbps
Аудио RU: AC3, 6 ch, 48 kHz, 448 kbps
Аудио EN: AC3, 6 ch, 48 kHz, 384 kbps
Субтитры: Русские (Forced), английские, немецкие

x264 info: frame I:1095 Avg QP:11.92 size: 97529
x264 info: frame P:33873 Avg QP:15.95 size: 25487
x264 info: frame B:108788 Avg QP:20.72 size: 5575
General
Unique ID : 192994761364745982305733119376886942731 (0x91317062731FFB2358E18D8E76314C0B)
Complete name : D:uTorrentРипы_от_wolf1245_MediaBitRodeo.MVO.HDRezka.WEB-DLRip-AVC.[wolf1245.MediaBit].mkv
Format : Matroska
Format version : Version 4
File size : 2.05 GiB
Duration : 1 h 39 min
Overall bit rate : 2 940 kb/s
Movie name : Rodeo.MVO.HDRezka.WEB-DLRip-AVC.[wolf1245.MediaBit]
Encoded date : UTC 2021-06-06 06:32:08
Writing application : mkvmerge v57.0.0 ('Till The End') 64-bit
Writing library : libebml v1.4.2 + libmatroska v1.6.4
Video
ID : 1
Format : AVC
Format/Info : Advanced Video Codec
Format profile : High@L4.1
Format settings : CABAC / 12 Ref Frames
Format settings, CABAC : Yes
Format settings, Reference frames : 12 frames
Codec ID : V_MPEG4/ISO/AVC
Duration : 1 h 39 min
Bit rate : 2 106 kb/s
Width : 1 024 pixels
Height : 512 pixels
Display aspect ratio : 1.85:1
Frame rate mode : Constant
Frame rate : 24.000 FPS
Color space : YUV
Chroma subsampling : 4:2:0
Bit depth : 8 bits
Scan type : Progressive
Bits/(Pixel*Frame) : 0.167
Stream size : 1.47 GiB (72%)
Title : .[wolf1245.MediaBit]
Writing library : x264 core 157 r2958 57baac4
Encoding settings : cabac=1 / ref=12 / deblock=1:0:0 / analyse=0x3:0x133 / me=umh / subme=10 / psy=1 / psy_rd=0.97:0.07 / mixed_ref=1 / me_range=32 / chroma_me=1 / trellis=2 / 8x8dct=1 / cqm=0 / deadzone=21,11 / fast_pskip=1 / chroma_qp_offset=-3 / threads=10 / lookahead_threads=2 / sliced_threads=0 / nr=0 / decimate=1 / interlaced=0 / bluray_compat=0 / constrained_intra=0 / bframes=10 / b_pyramid=2 / b_adapt=2 / b_bias=0 / direct=3 / weightb=1 / open_gop=0 / weightp=2 / keyint=240 / keyint_min=24 / scenecut=40 / intra_refresh=0 / rc_lookahead=60 / rc=2pass / mbtree=1 / bitrate=2106 / ratetol=1.0 / qcomp=0.60 / qpmin=0 / qpmax=69 / qpstep=4 / cplxblur=20.0 / qblur=0.5 / vbv_maxrate=50000 / vbv_bufsize=62500 / nal_hrd=none / filler=0 / ip_ratio=1.40 / aq=1:0.80
Language : English
Default : Yes
Forced : No
Audio #1
ID : 2
Format : AC-3
Format/Info : Audio Coding 3
Commercial name : Dolby Digital
Codec ID : A_AC3
Duration : 1 h 39 min
Bit rate mode : Constant
Bit rate : 448 kb/s
Channel(s) : 6 channels
Channel layout : L R C LFE Ls Rs
Sampling rate : 48.0 kHz
Frame rate : 31.250 FPS (1536 SPF)
Bit depth : 16 bits
Compression mode : Lossy
Stream size : 320 MiB (15%)
Title : MVO / HDRezka Studio
Language : Russian
Service kind : Complete Main
Default : Yes
Forced : No
Audio #2
ID : 3
Format : AC-3
Format/Info : Audio Coding 3
Commercial name : Dolby Digital
Codec ID : A_AC3
Duration : 1 h 39 min
Bit rate mode : Constant
Bit rate : 384 kb/s
Channel(s) : 6 channels
Channel layout : L R C LFE Ls Rs
Sampling rate : 48.0 kHz
Frame rate : 31.250 FPS (1536 SPF)
Bit depth : 16 bits
Compression mode : Lossy
Stream size : 274 MiB (13%)
Title : Original
Language : English
Service kind : Complete Main
Default : No
Forced : No
Text #1
ID : 4
Format : UTF-8
Codec ID : S_TEXT/UTF8
Codec ID/Info : UTF-8 Plain Text
Duration : 1 h 36 min
Bit rate : 3 b/s
Count of elements : 30
Stream size : 2.26 KiB (0%)
Title : forced
Language : Russian
Default : Yes
Forced : No
Text #2
ID : 5
Format : UTF-8
Codec ID : S_TEXT/UTF8
Codec ID/Info : UTF-8 Plain Text
Duration : 1 h 38 min
Bit rate : 61 b/s
Count of elements : 1513
Stream size : 44.2 KiB (0%)
Language : English
Default : No
Forced : No
Text #3
ID : 6
Format : UTF-8
Codec ID : S_TEXT/UTF8
Codec ID/Info : UTF-8 Plain Text
Duration : 1 h 39 min
Bit rate : 51 b/s
Count of elements : 1312
Stream size : 37.3 KiB (0%)
Language : German
Default : No
Forced : No
Релиз от: &
Автор релиза:
piratbit.pw



Скачать Прогулка. Наездница. Родео. через торрент https://i114.fastpic.ru/big/2021/0606/8f/685c52579d941574557108a89bc3bd8f.png Скачать фильм Прогулка. Наездница. Родео. через торрент бесплантно в хорошем качестве Описание: Фильм основан на реальных событиях. В 19-летнем возрасте Эмберли Снайдер, звезда родео, попала в автомобильную катастрофу, ... 10 10 2
Торрент: Зарегистрирован [2021-06-06 06:47] · скачан: 25 раз
Статус: √ проверено
Размер: 2.05 GB
Как cкачать? Как скачать Прогулка. Наездница. Родео. через торрент | UTorrent

28-11-2019 20:33  

Отключить всю рекламу на сайте

    Дорогой пользователь! Огромная просьба, поблагодарите релизера, оцените раздачу и оставьте свои комментарий, если Вы скачали Прогулка. Наездница. Родео. через торрент бесплатно! Внесите свою лепту в развитие PiratBit!
    Комментировать посты могут только пользователи прошедшие не сложную регистрацию
    Показать сообщения:    

    Прогулка. Наездница. Родео. через торрент
    Скачать бесплатно Прогулка. Наездница. Родео.
    Прогулка. Наездница. Родео. скачать торрент
    Прогулка. Наездница. Родео. смотреть онлайн
    Cкачать фильм Прогулка. Наездница. Родео. бесплатно
    Прогулка. Наездница. Родео. скачать торрент в хорошем качестве
    Прогулка. Наездница. Родео. смотреть онлайн бесплатно в хорошем качестве


    Вы не можете начинать темы
    Вы не можете отвечать на сообщения
    Вы не можете редактировать свои сообщения
    Вы не можете удалять свои сообщения
    Вы не можете голосовать в опросах
    Вы не можете прикреплять файлы к сообщениям
    Вы можете скачивать файлы