1 сезон

3 сезон

iTunes

1

iTunes

DUB Netflix

iTunes

13

1 сезон

RePack

30

Deluxe

pack

Легкие деньги

ВАЖНО

ИГРА 18+

pack

RePack

MK11

RePack

jed

RePack

fifa19

RePack

RDR2

RePack

NEED FOR SPEED™ PAYBACK

4 сезон

9 сезон

Бесстыжие 9 сезон

Все сериалы

все сериалы на PB.wtf

RePack

FAR CRY 5

Anonymous, доброй ночи, мы не успеваем до 1 числа собрать деньги на оплату серверов, помогите нам пожалуйста в это трудное время. В качестве благодарности мы отключим Вам всю рекламу на сайте (укажите свой ник в строку Ваше имя)!

×
  
Magnet ссылка

Отец / The Father (Флориан Зеллер) [2020, Драма, HDRip-AVC] DUB, MVO [iTunes, HDRezka Studio] от MediaBit piratbit.pw

Отец через торрент piratbit.pw

Раздают: 15 [ 393 KB/s ]
Размер: 2.01 GB | Добавлен: 12 д. назад | Торрент скачан:101 раз
Скачать  

03-06-2021 17:00 Отец Скачать торрент  


Отец / The Father
Информация о фильме:
Название: Отец
Оригинальное название: The Father
Год выхода: 2020
Жанр: Драма
Режиссер: Флориан Зеллер

В ролях: Энтони Хопкинс, Оливия Колман, Имоджен Путс, Руфус Сьюэлл, Оливия Уильямс, Марк Гейтисс, Эви Рэй, Айеша Дхаркер
Описание: Восьмидесятилетний Энтони живет один в своем доме в Лондоне. Его дочь Энн срочно ищет человека, который мог бы присматривать за ее отцом, поскольку сама она планирует переехать в Париж. Энтони же отвергает каждого кандидата, которого предлагает дочь, считая, что ему не нужны сиделки. Энн беспокоится о старике и страдает от вины за то, что оставляет его ради возможности жить собственной жизнью.



Страна: Великобритания, Франция
Студия: AG Studios NYC, Cine@, Embankment Films, F Comme Film, Film4, Trademark Films, Viewfinder
Продолжительность: 01:36:59
Перевод: Дублированный - iTunes , Профессиональный (многоголосый, закадровый) - HDRezka Studio



Информация о файле:
Кодек: AVC
Формат: MKV
Качество: HDRip-AVC
Видео: MPEG-4 AVC, 1024x428, 23.976 fps, 1680 kbps
Аудио RU: AC3, 6 ch, 48 kHz, 384 kbps | iTunes
Аудио RU: AC3, 6 ch, 48 kHz, 448 kbps | HDRezka Studio
Аудио EN: AC3, 6 ch, 48 kHz, 448 kbps
Субтитры: Русские (Forced, full), английские
Навигация по главам: Да

x264 info: frame I:887 Avg QP:10.76 size: 86054
x264 info: frame P:26974 Avg QP:13.40 size: 24211
x264 info: frame B:111674 Avg QP:17.04 size: 4413
General
Unique ID : 103811954107317763651948844682479469466 (0x4E1974817011E7AF62A4DF952D61039A)
Complete name : D:uTorrentРипы_от_wolf1245_MediaBitFather.2020.DUB.MVO.HDRip-AVC.[wolf1245.MediaBit].mkv
Format : Matroska
Format version : Version 4
File size : 2.01 GiB
Duration : 1 h 36 min
Overall bit rate : 2 962 kb/s
Movie name : Father.2020.DUB.MVO.HDRip-AVC.[wolf1245.MediaBit]
Encoded date : UTC 2021-06-03 16:48:08
Writing application : mkvmerge v57.0.0 ('Till The End') 64-bit
Writing library : libebml v1.4.2 + libmatroska v1.6.4
Video
ID : 1
Format : AVC
Format/Info : Advanced Video Codec
Format profile : High@L4.1
Format settings : CABAC / 14 Ref Frames
Format settings, CABAC : Yes
Format settings, Reference frames : 14 frames
Codec ID : V_MPEG4/ISO/AVC
Duration : 1 h 36 min
Bit rate : 1 680 kb/s
Width : 1 024 pixels
Height : 428 pixels
Display aspect ratio : 2.40:1
Frame rate mode : Constant
Frame rate : 23.976 (24000/1001) FPS
Color space : YUV
Chroma subsampling : 4:2:0
Bit depth : 8 bits
Scan type : Progressive
Bits/(Pixel*Frame) : 0.160
Stream size : 1.14 GiB (57%)
Title : .[wolf1245.MediaBit]
Writing library : x264 core 157 r2958 57baac4
Encoding settings : cabac=1 / ref=14 / deblock=1:-3:-3 / analyse=0x3:0x133 / me=umh / subme=11 / psy=1 / psy_rd=1.00:0.06 / mixed_ref=1 / me_range=48 / chroma_me=1 / trellis=2 / 8x8dct=1 / cqm=0 / deadzone=21,11 / fast_pskip=1 / chroma_qp_offset=-3 / threads=10 / lookahead_threads=2 / sliced_threads=0 / nr=0 / decimate=1 / interlaced=0 / bluray_compat=0 / constrained_intra=0 / bframes=12 / b_pyramid=2 / b_adapt=2 / b_bias=0 / direct=3 / weightb=1 / open_gop=0 / weightp=2 / keyint=240 / keyint_min=24 / scenecut=40 / intra_refresh=0 / rc_lookahead=60 / rc=2pass / mbtree=1 / bitrate=1680 / ratetol=1.0 / qcomp=0.60 / qpmin=0 / qpmax=69 / qpstep=4 / cplxblur=20.0 / qblur=0.5 / vbv_maxrate=50000 / vbv_bufsize=62500 / nal_hrd=none / filler=0 / ip_ratio=1.40 / aq=1:0.80
Language : English
Default : Yes
Forced : No
Audio #1
ID : 2
Format : AC-3
Format/Info : Audio Coding 3
Commercial name : Dolby Digital
Codec ID : A_AC3
Duration : 1 h 36 min
Bit rate mode : Constant
Bit rate : 384 kb/s
Channel(s) : 6 channels
Channel layout : L R C LFE Ls Rs
Sampling rate : 48.0 kHz
Frame rate : 31.250 FPS (1536 SPF)
Compression mode : Lossy
Stream size : 266 MiB (13%)
Title : DUB | [iTunes]
Language : Russian
Service kind : Complete Main
Default : Yes
Forced : Yes
Audio #2
ID : 3
Format : AC-3
Format/Info : Audio Coding 3
Commercial name : Dolby Digital
Codec ID : A_AC3
Duration : 1 h 36 min
Bit rate mode : Constant
Bit rate : 448 kb/s
Channel(s) : 6 channels
Channel layout : L R C LFE Ls Rs
Sampling rate : 48.0 kHz
Frame rate : 31.250 FPS (1536 SPF)
Bit depth : 16 bits
Compression mode : Lossy
Stream size : 311 MiB (15%)
Title : MVO | [HDRezka Studio]
Language : Russian
Service kind : Complete Main
Default : No
Forced : No
Audio #3
ID : 4
Format : AC-3
Format/Info : Audio Coding 3
Commercial name : Dolby Digital
Codec ID : A_AC3
Duration : 1 h 36 min
Bit rate mode : Constant
Bit rate : 448 kb/s
Channel(s) : 6 channels
Channel layout : L R C LFE Ls Rs
Sampling rate : 48.0 kHz
Frame rate : 31.250 FPS (1536 SPF)
Bit depth : 16 bits
Compression mode : Lossy
Stream size : 311 MiB (15%)
Title : Original
Language : English
Service kind : Complete Main
Default : No
Forced : No
Text #1
ID : 5
Format : UTF-8
Codec ID : S_TEXT/UTF8
Codec ID/Info : UTF-8 Plain Text
Duration : 13 min 4 s
Bit rate : 1 b/s
Count of elements : 2
Stream size : 144 Bytes (0%)
Title : Forced
Language : Russian
Default : No
Forced : No
Text #2
ID : 6
Format : UTF-8
Codec ID : S_TEXT/UTF8
Codec ID/Info : UTF-8 Plain Text
Duration : 1 h 29 min
Bit rate : 87 b/s
Count of elements : 1230
Stream size : 57.6 KiB (0%)
Title : Full
Language : Russian
Default : No
Forced : No
Text #3
ID : 7
Format : UTF-8
Codec ID : S_TEXT/UTF8
Codec ID/Info : UTF-8 Plain Text
Duration : 1 h 29 min
Bit rate : 55 b/s
Count of elements : 1229
Stream size : 36.3 KiB (0%)
Language : English
Default : No
Forced : No
Menu
00:00:00.000 : :Chapter 01
00:06:30.473 : :Chapter 02
00:14:07.138 : :Chapter 03
00:25:32.281 : :Chapter 04
00:35:09.983 : :Chapter 05
00:39:52.765 : :Chapter 06
00:45:57.546 : :Chapter 07
00:50:33.697 : :Chapter 08
00:54:12.124 : :Chapter 09
00:58:36.888 : :Chapter 10
01:02:19.778 : :Chapter 11
01:07:21.537 : :Chapter 12
01:11:04.218 : :Chapter 13
01:13:52.511 : :Chapter 14
01:20:54.558 : :Chapter 15
01:22:24.022 : :Chapter 16
01:33:11.211 : :Chapter 17
Релиз от: &
Автор релиза:
piratbit.pw



Скачать Отец через торрент https://i114.fastpic.ru/big/2021/0603/70/15f5bd5f43a0fe2dddc7167e2198c370.jpg Скачать фильм Отец через торрент бесплантно в хорошем качестве Описание: Восьмидесятилетний Энтони живет один в своем доме в Лондоне. Его дочь Энн срочно ищет человека, который мог бы присматривать за ... 10 10 4
Торрент: Зарегистрирован [2021-06-03 17:00] · скачан: 101 раз
Статус: √ проверено
Размер: 2.01 GB
Как cкачать? Как скачать Отец через торрент | UTorrent

28-11-2019 20:33  

Отключить всю рекламу на сайте

    Дорогой пользователь! Огромная просьба, поблагодарите релизера, оцените раздачу и оставьте свои комментарий, если Вы скачали Отец через торрент бесплатно! Внесите свою лепту в развитие PiratBit!
    Комментировать посты могут только пользователи прошедшие не сложную регистрацию
    Показать сообщения:    

    Отец через торрент
    Скачать бесплатно Отец
    Отец скачать торрент
    Отец смотреть онлайн
    Cкачать фильм Отец бесплатно
    Отец скачать торрент в хорошем качестве
    Отец смотреть онлайн бесплатно в хорошем качестве


    Вы не можете начинать темы
    Вы не можете отвечать на сообщения
    Вы не можете редактировать свои сообщения
    Вы не можете удалять свои сообщения
    Вы не можете голосовать в опросах
    Вы не можете прикреплять файлы к сообщениям
    Вы можете скачивать файлы