1 сезон

3 сезон

iTunes

1

iTunes

DUB Netflix

iTunes

13

1 сезон

RePack

30

Deluxe

pack

Легкие деньги

ВАЖНО

ИГРА 18+

pack

RePack

MK11

RePack

jed

RePack

fifa19

RePack

RDR2

RePack

NEED FOR SPEED™ PAYBACK

4 сезон

9 сезон

Бесстыжие 9 сезон

Все сериалы

все сериалы на PB.wtf

RePack

FAR CRY 5

Anonymous, доброй ночи, мы не успеваем до 1 числа собрать деньги на оплату серверов, помогите нам пожалуйста в это трудное время. В качестве благодарности мы отключим Вам всю рекламу на сайте (укажите свой ник в строку Ваше имя)!

×
  
Magnet ссылка

Пищеблок / Сезон: 1 / Серии: 1-6 из 8 (Святослав Подгаевский) [2021, Tриллер, фантастика, WEBRip 720p] piratbit.pw

Пищеблок через торрент piratbit.pw

Раздают: 6 [ 246 KB/s ] Качают: 4 [ 0 KB/s ]
Размер: 7.65 GB | Добавлен: 2 д. 20 ч. назад | Торрент скачан:26 раз
Скачать  

19-05-2021 18:04 Пищеблок Скачать торрент  

Пищеблок
Год выпуска: 2021
Страна: Россия
Студия: Sreda
Жанр: Tриллер, фантастика
Продолжительность: ~ 00:45:00 серия
Перевод: Не требуется
Субтитры: Русские

Режиссер: Святослав Подгаевский



В ролях: Пётр Натаров, Даниил Вершинин, Ангелина Стречина, Илья Коробко, Ирина Пегова, Сергей Шакуров, Тимофей Трибунцев, Роман Мадянов, Яна Гладких, Никита Клещёв, Владислав Семилетков, Пётр Терещенко, Маруся Климова, Виталия Корниенко, Яна Коновалова, Мария Абрамова (II), Никита Кологривый, Фёдор Федосеев, Арсений Мурзин, Николай Фоменко, Денис Парамонов

Описание: Пока вся страна следит за Олимпиадой-80, в пионерском лагере «Буревестник» на Волге происходят странные события. Дети загадочно исчезают по ночам, а потом возвращаются — но совсем не такими, как прежде. Увлеченные летней свободой и друг другом вожатые не замечают, как в их отрядах оживают страшные пионерские легенды, а руководство лагеря делает вид, что все в порядке. Разбираться в тайнах «Буревестника» придется мальчику Валерке и вожатому Игорю. Для начала им предстоит понять, остался ли в лагере хоть кто-то, кому можно доверять.

Качество: WEBRip 720p
Формат: MKV

Видео: MPEG-4 AVC, ~ 3400 Кбит/с, 1280x536, 25 кадр/с
Аудио: 48 kHz, AC3 Dolby Digital, 3/2 (L,C,R,l,r) + LFE ch, ~384 kbps
скриншот  скриншот  скриншот  скриншот  

Общее
Уникальный идентификатор : 188131146725730263102397685553161044205 (0x8D88BDAB4D1D15F89998CE545AB000ED)
Полное имя : C:\Pisheblok.2021.WEB-DL.(720p).ExKinoRay\Pisheblok.E01.2021.WEB-DL.(720p).ExKinoRay.mkv
Формат : Matroska
Версия формата : Version 2
Размер файла : 1,09 Гбайт
Продолжительность : 43 м. 9 с.
Общий поток : 3619 Кбит/сек
Дата кодирования : UTC 2021-05-18 22:22:18
Программа кодирования : mkvmerge v5.8.0 ('No Sleep / Pillow') built on Sep 2 2012 15:37:04
Библиотека кодирования : libebml v1.2.3 + libmatroska v1.3.0

Видео
Идентификатор : 1
Формат : AVC
Формат/Информация : Advanced Video Codec
Профиль формата : High@L3.1
Параметр CABAC формата : Да
Параметр RefFrames формата : 6 кадров
Идентификатор кодека : V_MPEG4/ISO/AVC
Продолжительность : 43 м. 9 с.
Битрейт : 3163 Кбит/сек
Номинальный битрейт : 4000 Кбит/сек
Ширина : 1280 пикселей
Высота : 536 пикселей
Соотношение сторон : 2,40:1
Режим частоты кадров : Постоянный
Частота кадров : 25,000 кадров/сек
Цветовое пространство : YUV
Субдискретизация насыщенности : 4:2:0
Битовая глубина : 8 бит
Тип развёртки : Прогрессивная
Бит/(Пиксели*Кадры) : 0.184
Размер потока : 976 Мбайт (87%)
Библиотека кодирования : x264 core 157 r2969 d4099dd
Настройки программы : cabac=1 / ref=6 / deblock=1:0:0 / analyse=0x3:0x133 / me=umh / subme=10 / psy=1 / psy_rd=1.00:0.00 / mixed_ref=1 / me_range=24 / chroma_me=1 / trellis=2 / 8x8dct=1 / cqm=0 / deadzone=21,11 / fast_pskip=1 / chroma_qp_offset=-2 / threads=17 / lookahead_threads=2 / sliced_threads=0 / nr=0 / decimate=1 / interlaced=0 / bluray_compat=0 / stitchable=1 / constrained_intra=0 / bframes=8 / b_pyramid=2 / b_adapt=2 / b_bias=0 / direct=3 / weightb=1 / open_gop=0 / weightp=2 / keyint=200 / keyint_min=100 / scenecut=40 / intra_refresh=0 / rc_lookahead=60 / rc=2pass / mbtree=1 / bitrate=4000 / ratetol=1.0 / qcomp=0.60 / qpmin=0 / qpmax=69 / qpstep=4 / cplxblur=20.0 / qblur=0.5 / vbv_maxrate=4400 / vbv_bufsize=740 / nal_hrd=none / filler=0 / ip_ratio=1.40 / aq=1:1.00
Язык : Russian
Default : Да
Forced : Нет

Аудио
Идентификатор : 2
Формат : AC-3
Формат/Информация : Audio Coding 3
Расширение режима : CM (complete main)
Параметр Endianness формата : Big
Идентификатор кодека : A_AC3
Продолжительность : 43 м. 9 с.
Вид битрейта : Постоянный
Битрейт : 384 Кбит/сек
Каналы : 6 каналов
Расположение каналов : Front: L C R, Side: L R, LFE
Частота : 48,0 КГц
Частота кадров : 31,250 кадров/сек (1536 spf)
Метод сжатия : С потерями
Размер потока : 119 Мбайт (11%)
Язык : Russian
Default : Да
Forced : Нет

Текст
Идентификатор : 3
Формат : UTF-8
Идентификатор кодека : S_TEXT/UTF8
Идентификатор кодека/Информация : UTF-8 Plain Text
Язык : Russian
Default : Нет
Forced : Нет

Когда раздача ведётся путём добавления новых серий, при каждом добавлении создётся новый торрент. Чтобы начать докачку новой серии, пользователям необходимо сделать следующее:
(1) остановить скачивание,
(2) удалить старый торрент у себя из клиента (старые серии удалять не надо),
(3) скачать новый торрент и запустить его у себя в клиенте вместо старого, при этом указать клиенту путь в старую папку, куда и должно происходить скачивание новых серий.
Ваш клиент при этом должен произвести хеширование (проверку) старой папки (если не производит сам - помогите ему сделать это), и будет докачивать только те серии, которых у вас ещё нет. Старые серии при этом не удаляются, а продолжают раздаваться!
Eсли вы уже удалили старые серии, то предотвратить повторную закачку старых серий можно, отжав галочку в соответсвующих местах при запуске нового торрента. По возможности, желательно не удалять старые серии как можно дольше, чтобы релизёр не столько продолжал раздавать старые серии, а смог сконцентрироваться на новых.

piratbit.pw



Скачать Пищеблок через торрент https://d.radikal.ru/d03/2105/f3/9286ddf32b52.jpg Скачать фильм Пищеблок через торрент бесплантно в хорошем качестве Описание: Пока вся страна следит за Олимпиадой-80, в пионерском лагере «Буревестник» на Волге происходят странные события. Дети загадочно ... 9.4 10 17
Торрент: Зарегистрирован [2021-06-17 05:02] · скачан: 26 раз
Статус: √ проверено
Размер: 7.65 GB
Как cкачать? Как скачать Пищеблок через торрент | UTorrent

% Раздел Тема Автор DL S | L
Наши сериалы [ 11.72 GB ] Пищеблок / Сезон: 1 / Серии: 1-6 из 8 [2021 Tриллер WEBRip 1080p] bober100 Скачать
17 | 16
Наши сериалы [ 3.88 GB ] Пищеблок / Сезон: 1 / Серии: 1-6 из 8 [2021 Tриллер WEBRip-AVC] bober100 Скачать
5 | 4
Наши сериалы [ 3.9 GB ] Пищеблок / Сезон: 1 / Серии: 1-6 из 8 [2021 Tриллер WEBRip] bober100 Скачать
8 | 4


Последний раз редактировалось: bober100 (2021-06-17 12:23), всего редактировалось 3 раз(а)

28-11-2019 20:33  

Отключить всю рекламу на сайте

27-05-2021 04:23 Пищеблок Скачать торрент  

piratbit.pw



11-06-2021 07:49 Пищеблок Скачать торрент  

нормалек.ждем три последних серии.piratbit.pw



    Дорогой пользователь! Огромная просьба, поблагодарите релизера, оцените раздачу и оставьте свои комментарий, если Вы скачали Пищеблок через торрент бесплатно! Внесите свою лепту в развитие PiratBit!
    Комментировать посты могут только пользователи прошедшие не сложную регистрацию
    Показать сообщения:    

    Пищеблок через торрент
    Скачать бесплатно Пищеблок
    Пищеблок скачать торрент
    Пищеблок смотреть онлайн
    Cкачать фильм Пищеблок бесплатно
    Пищеблок скачать торрент в хорошем качестве
    Пищеблок смотреть онлайн бесплатно в хорошем качестве


    Вы не можете начинать темы
    Вы не можете отвечать на сообщения
    Вы не можете редактировать свои сообщения
    Вы не можете удалять свои сообщения
    Вы не можете голосовать в опросах
    Вы не можете прикреплять файлы к сообщениям
    Вы можете скачивать файлы