1 сезон

3 сезон

iTunes

1

iTunes

DUB Netflix

iTunes

13

1 сезон

RePack

30

Deluxe

pack

Легкие деньги

ВАЖНО

ИГРА 18+

pack

RePack

MK11

RePack

jed

RePack

fifa19

RePack

RDR2

RePack

NEED FOR SPEED™ PAYBACK

4 сезон

9 сезон

Бесстыжие 9 сезон

Все сериалы

все сериалы на PB.wtf

RePack

FAR CRY 5

Anonymous, доброй ночи, мы не успеваем до 1 числа собрать деньги на оплату серверов, помогите нам пожалуйста в это трудное время. В качестве благодарности мы отключим Вам всю рекламу на сайте (укажите свой ник в строку Ваше имя)!

×
  
Magnet ссылка

Творцы снов / Drømmebyggerne / Dreambuilders (Ким Хаген Йенсен, Зинк Зинк) [2020, Мультфильм, фэнтези, драма, комедия, приключения, семейный, BDRip 1080p] DUB [iTunes] piratbit.pw

Творцы снов через торрент piratbit.pw

Раздают: 8 [ 148 KB/s ]
Размер: 6.81 GB | Добавлен: 1 мес. 7 д. назад | Торрент скачан:188 раз
Скачать  

08-05-2021 14:21 Творцы снов Скачать торрент  

Творцы снов | Drømmebyggerne | Dreambuilders
Год выпуска: 2020
Страна: Дания
Выпущено: First Lady Film
Жанр: Мультфильм, фэнтези, драма, комедия, приключения, семейный
Продолжительность: 01:20:55
Перевод:
#1: Дублированный | Русский язык | iTunes
#2: Дублированный | Украинский язык | iTunes
Субтитры: отсутствуют

Режиссер: Ким Хаген Йенсен, Зинк Зинк

rating

В ролях: Расмус Ботофт, Каролин Ведель, Мартин Бух, Миа Лердам, Дитте Хансен, Эмили Коппел, Стиг Хоффмайер, Альберт Виндинг

Описание: Однажды девочка Нина получает чудесную сверхспособность – создавать сновидения других людей. Попав в волшебную Страну Снов, она встречается с её весьма необычными обитателями, заводит новых друзей и учится превращать сны в реальность.

Качество: BDRip 1080p
Формат: MKV

Видео: MPEG-4 AVC, 10.0 Mb/s, 1920x804, 24 fps
Аудио #1 Russian: 48 kHz, AC3 Dolby Digital, 3/2 (L, C, R, l, r) + LFE ch, ~384 Kbps | DUB | iTunes
Аудио #2 Ukrainian: 48 kHz, AC3 Dolby Digital, 3/2 (L, C, R, l, r) + LFE ch, ~384 Kbps | DUB | iTunes
Аудио #3 Danish: 48 kHz, AC3 Dolby Digital, 3/2 (L, C, R, l, r) + LFE ch, ~640 Kbps
Аудио #4 English: 48 kHz, AC3 Dolby Digital, 3/2 (L, C, R, l, r) + LFE ch, ~640 Kbps
скриншот  скриншот  скриншот  скриншот  

Complete name : Tvortsyi.snov.2020.BDRip.1080p.ELEKTRI4KA.UNIONGANG.mkv
Format : Matroska
Format version : Version 4
File size : 6.81 GiB
Duration : 1 h 20 min
Overall bit rate : 12.0 Mb/s
Movie name : Tvortsyi.snov.2020.BDRip.1080p.ELEKTRI4KA.UNIONGANG.
Encoded date : UTC 2021-04-14 12:07:25
Writing application : mkvmerge v8.3.0 ('Over the Horizon') 64bit
Writing library : libebml v1.3.1 + libmatroska v1.4.2

Video
ID : 1
Format : AVC
Format/Info : Advanced Video Codec
Format profile : High@L4.1
Format settings : CABAC / 5 Ref Frames
Format settings, CABAC : Yes
Format settings, Reference frames : 5 frames
Codec ID : V_MPEG4/ISO/AVC
Duration : 1 h 20 min
Bit rate : 10 000 kb/s
Width : 1 920 pixels
Height : 804 pixels
Display aspect ratio : 2.40:1
Frame rate mode : Constant
Frame rate : 24.000 FPS
Color space : YUV
Chroma subsampling : 4:2:0
Bit depth : 8 bits
Scan type : Progressive
Bits/(Pixel*Frame) : 0.270
Stream size : 5.65 GiB (83%)
Title : Rip from Fishe
Writing library : x264 core 157 r2958 57baac4
Encoding settings : cabac=1 / ref=5 / deblock=1:-3:-3 / analyse=0x3:0x113 / me=umh / subme=10 / psy=1 / psy_rd=1.00:0.00 / mixed_ref=1 / me_range=32 / chroma_me=1 / trellis=2 / 8x8dct=1 / cqm=0 / deadzone=21,11 / fast_pskip=0 / chroma_qp_offset=-2 / threads=33 / lookahead_threads=5 / sliced_threads=0 / nr=0 / decimate=0 / interlaced=0 / bluray_compat=0 / constrained_intra=0 / bframes=8 / b_pyramid=2 / b_adapt=2 / b_bias=0 / direct=3 / weightb=0 / open_gop=0 / weightp=2 / keyint=240 / keyint_min=24 / scenecut=40 / intra_refresh=0 / rc=2pass / mbtree=0 / bitrate=10000 / ratetol=1.0 / qcomp=0.60 / qpmin=0 / qpmax=69 / qpstep=4 / cplxblur=20.0 / qblur=0.5 / ip_ratio=1.40 / pb_ratio=1.30 / aq=1:1.00
Default : Yes
Forced : No

Audio #1
ID : 2
Format : AC-3
Format/Info : Audio Coding 3
Commercial name : Dolby Digital
Codec ID : A_AC3
Duration : 1 h 20 min
Bit rate mode : Constant
Bit rate : 384 kb/s
Channel(s) : 6 channels
Channel layout : L R C LFE Ls Rs
Sampling rate : 48.0 kHz
Frame rate : 31.250 FPS (1536 SPF)
Compression mode : Lossy
Stream size : 222 MiB (3%)
Title : DUB (iTunes)
Language : Russian
Service kind : Complete Main
Default : Yes
Forced : Yes

Audio #2
ID : 3
Format : AC-3
Format/Info : Audio Coding 3
Commercial name : Dolby Digital
Codec ID : A_AC3
Duration : 1 h 20 min
Bit rate mode : Constant
Bit rate : 384 kb/s
Channel(s) : 6 channels
Channel layout : L R C LFE Ls Rs
Sampling rate : 48.0 kHz
Frame rate : 31.250 FPS (1536 SPF)
Compression mode : Lossy
Stream size : 222 MiB (3%)
Title : DUB (iTunes)
Language : Ukrainian
Service kind : Complete Main
Default : No
Forced : No

Audio #3
ID : 4
Format : AC-3
Format/Info : Audio Coding 3
Commercial name : Dolby Digital
Codec ID : A_AC3
Duration : 1 h 20 min
Bit rate mode : Constant
Bit rate : 640 kb/s
Channel(s) : 6 channels
Channel layout : L R C LFE Ls Rs
Sampling rate : 48.0 kHz
Frame rate : 31.250 FPS (1536 SPF)
Compression mode : Lossy
Stream size : 370 MiB (5%)
Language : Danish
Service kind : Complete Main
Default : No
Forced : No

Audio #4
ID : 5
Format : AC-3
Format/Info : Audio Coding 3
Commercial name : Dolby Digital
Codec ID : A_AC3
Duration : 1 h 20 min
Bit rate mode : Constant
Bit rate : 640 kb/s
Channel(s) : 6 channels
Channel layout : L R C LFE Ls Rs
Sampling rate : 48.0 kHz
Frame rate : 31.250 FPS (1536 SPF)
Compression mode : Lossy
Stream size : 370 MiB (5%)
Language : English
Service kind : Complete Main
Default : No
Forced : No

Menu
00:00:00.000 : :Chapter 1
00:06:34.375 : :Chapter 2
00:14:01.666 : :Chapter 3
00:20:02.000 : :Chapter 4
00:26:42.333 : :Chapter 5
00:33:36.625 : :Chapter 6
00:41:25.333 : :Chapter 7
00:48:50.541 : :Chapter 8
00:56:21.500 : :Chapter 9
01:02:54.208 : :Chapter 10
01:11:29.791 : :Chapter 11
01:16:46.082 : :Chapter 12
01:20:54.707 : :Chapter 13

piratbit.pw



Скачать Творцы снов через торрент https://i3.imageban.ru/out/2021/04/14/cd1729daf5e3f62b433dedf606030392.png Скачать фильм Творцы снов через торрент бесплантно в хорошем качестве Описание: Однажды девочка Нина получает чудесную сверхспособность – создавать сновидения других людей. Попав в волшебную Страну Снов, она ... 10 10 4
Торрент: Зарегистрирован [2021-05-08 14:21] · скачан: 188 раз
Статус: √ проверено
Размер: 6.81 GB
Как cкачать? Как скачать Творцы снов через торрент | UTorrent

% Раздел Тема Автор DL S | L
Иностранные мультфильмы [ 1.42 GB ] Творцы снов / Drømmebyggerne / Dreambuilders [2020 Мультфильм BDRip] - Twi7ter Скачать
54 | 1

28-11-2019 20:33  

Отключить всю рекламу на сайте


    Дорогой пользователь! Огромная просьба, поблагодарите релизера, оцените раздачу и оставьте свои комментарий, если Вы скачали Творцы снов через торрент бесплатно! Внесите свою лепту в развитие PiratBit!
    Комментировать посты могут только пользователи прошедшие не сложную регистрацию
    Показать сообщения:    

    Творцы снов через торрент
    Скачать бесплатно Творцы снов
    Творцы снов скачать торрент
    Творцы снов смотреть онлайн
    Cкачать фильм Творцы снов бесплатно
    Творцы снов скачать торрент в хорошем качестве
    Творцы снов смотреть онлайн бесплатно в хорошем качестве


    Вы не можете начинать темы
    Вы не можете отвечать на сообщения
    Вы не можете редактировать свои сообщения
    Вы не можете удалять свои сообщения
    Вы не можете голосовать в опросах
    Вы не можете прикреплять файлы к сообщениям
    Вы можете скачивать файлы