1 сезон

3 сезон

iTunes

1

iTunes

DUB Netflix

iTunes

13

1 сезон

RePack

30

Deluxe

pack

Легкие деньги

ВАЖНО

ИГРА 18+

pack

RePack

MK11

RePack

jed

RePack

fifa19

RePack

RDR2

RePack

NEED FOR SPEED™ PAYBACK

4 сезон

9 сезон

Бесстыжие 9 сезон

Все сериалы

все сериалы на PB.wtf

RePack

FAR CRY 5

Anonymous, доброй ночи, мы не успеваем до 1 числа собрать деньги на оплату серверов, помогите нам пожалуйста в это трудное время. В качестве благодарности мы отключим Вам всю рекламу на сайте (укажите свой ник в строку Ваше имя)!

×
  
Magnet ссылка

Бигфут / Sasquatch / Сезон: 1 / Серии: 1-3 из 3 (Джошуа Рофе) [2021, Документальный, криминал, детектив, WEBRip (HEVC)1080p] [MVO] (HDRezka Studio) piratbit.pw

Бигфут через торрент piratbit.pw

Раздают: 4 [ 0 KB/s ]
Размер: 1.57 GB | Добавлен: 1 мес. 19 д. назад | Торрент скачан:25 раз
Скачать  

25-04-2021 16:02 Бигфут Скачать торрент  

Бигфут / Sasquatch

✦ Год выпуска: 2021
✦ Жанр: Документальный, криминал, детектив
✦ Страна: США
✦ Продолжительность: 1х ~ 00:43:00
✦ Перевод: Профессиональный (многоголосый закадровый) *HDRezka Studio*
✦ Субтитры: русские (forced), английские

✦ Режиссер: Джошуа Рофе

✦ В ролях: Дэвид Холхаус, Ghostdance, Кристофер Динстаг, Razor, Молли Синовей, Боб Гимлин, Чарльз Карлсон, Ларри Ливермор, Луис Эспиноза

✦ Описание: Во время посещения фермы марихуаны в 1993 году журналист-расследователь Дэвид Холхаус услышал, что на соседней ферме трое мужчин были разорваны на части в результате жестокого нападения снежного человека. Спустя 25 лет Холхаус вернулся, чтобы выяснить правду о том, что произошло той ночью...

ratingскриншот  

✦ Качество: WEBRip (HEVC) 1080p
✦ Формат: MKV
✦ Видео кодек: x.265
✦ Аудио кодек: AC3, E-AC3
✦ Видео: HEVC, 1920x1080, 1 423 Kbps, 23,976 fps, 10 bit
✦ Аудио Rus: 48 kHz, AC3, 6 ch, ~448.00 kbps
✦ Аудио Eng: 48 kHz, E-AC3, 6 ch, ~256.00 kbps
скриншот   скриншот   скриншот   скриншот   скриншот  
General
Unique ID : 225961378453966487570397923343604051555 (0xA9FE9418D5BE823DA4C72289FC62EE63)
Complete name : F:\фото корпус\Sasquatch.S01. WEBRip(HEVC)1080p\Sasquatch.S01E02.WEBRip (HEVC)1080p.[MVO] (HDRezka Studio).xz.mkv
Format : Matroska
Format version : Version 4 / Version 2
File size : 652 MiB
Duration : 41mn 59s
Overall bit rate : 2 171 Kbps
Movie name : Sasquatch.S01E02.WEBRip (HEVC)1080p.[MVO] (HDRezka Studio).xz
Encoded date : UTC 2021-04-25 15:24:39
Writing application : mkvmerge v6.1.0 ('Old Devil') built on Mar 2 2013 14:32:37
Writing library : Lavc58.114.100 ssa
DURATION : 00:41:04.298000000

Video
ID : 1
Format : HEVC
Format/Info : High Efficiency Video Coding
Format profile : Main 10@L4@Main
Codec ID : V_MPEGH/ISO/HEVC
Duration : 41mn 59s
Bit rate : 1 423 Kbps
Width : 1 920 pixels
Height : 1 080 pixels
Display aspect ratio : 16:9
Frame rate mode : Constant
Frame rate : 23.976 fps
Color space : YUV
Chroma subsampling : 4:2:0
Bit depth : 10 bits
Bits/(Pixel*Frame) : 0.029
Stream size : 427 MiB (66%)
Title : Sasquatch.S01E02.WEBRip (HEVC)1080p.[MVO] (HDRezka Studio).xz
Writing library : x265 3.4+27-g5163c32d7:[Windows][GCC 10.2.0][64 bit] 10bit
Encoding settings : cpuid=1111039 / frame-threads=4 / numa-pools=16 / wpp / no-pmode / no-pme / no-psnr / no-ssim / log-level=2 / input-csp=1 / input-res=1920x1080 / interlace=0 / total-frames=0 / level-idc=0 / high-tier=1 / uhd-bd=0 / ref=1 / no-allow-non-conformance / no-repeat-headers / annexb / no-aud / no-hrd / info / hash=0 / no-temporal-layers / open-gop / min-keyint=23 / keyint=250 / gop-lookahead=0 / bframes=3 / b-adapt=0 / b-pyramid / bframe-bias=0 / rc-lookahead=5 / lookahead-slices=6 / scenecut=0 / hist-scenecut=0 / radl=0 / no-splice / no-intra-refresh / ctu=32 / min-cu-size=16 / no-rect / no-amp / max-tu-size=32 / tu-inter-depth=1 / tu-intra-depth=1 / limit-tu=0 / rdoq-level=0 / dynamic-rd=0.00 / no-ssim-rd / no-signhide / no-tskip / nr-intra=0 / nr-inter=0 / no-constrained-intra / strong-intra-smoothing / max-merge=2 / limit-refs=0 / no-limit-modes / me=0 / subme=0 / merange=57 / temporal-mvp / no-frame-dup / no-hme / no-weightp / no-weightb / no-analyze-src-pics / deblock=0:0 / no-sao / no-sao-non-deblock / rd=2 / selective-sao=0 / early-skip / rskip / fast-intra / no-tskip-fast / no-cu-lossless / no-b-intra / no-splitrd-skip / rdpenalty=0 / psy-rd=2.00 / psy-rdoq=0.00 / no-rd-refine / no-lossless / cbqpoffs=0 / crqpoffs=0 / rc=crf / crf=23.0 / qcomp=0.60 / qpstep=4 / stats-write=0 / stats-read=0 / ipratio=1.40 / pbratio=1.30 / aq-mode=1 / aq-strength=0.00 / cutree / zone-count=0 / no-strict-cbr / qg-size=32 / no-rc-grain / qpmax=69 / qpmin=0 / no-const-vbv / sar=1 / overscan=0 / videoformat=5 / range=0 / colorprim=2 / transfer=2 / colormatrix=2 / chromaloc=0 / display-window=0 / cll=0,0 / min-luma=0 / max-luma=1023 / log2-max-poc-lsb=8 / vui-timing-info / vui-hrd-info / slices=1 / no-opt-qp-pps / no-opt-ref-list-length-pps / no-multi-pass-opt-rps / scenecut-bias=0.05 / hist-threshold=0.03 / no-opt-cu-delta-qp / no-aq-motion / no-hdr10 / no-hdr10-opt / no-dhdr10-opt / no-idr-recovery-sei / analysis-reuse-level=0 / analysis-save-reuse-level=0 / analysis-load-reuse-level=0 / scale-factor=0 / refine-intra=0 / refine-inter=0 / refine-mv=1 / refine-ctu-distortion=0 / no-limit-sao / ctu-info=0 / no-lowpass-dct / refine-analysis-type=0 / copy-pic=1 / max-ausize-factor=1.0 / no-dynamic-refine / no-single-sei / no-hevc-aq / no-svt / no-field / qp-adaptation-range=1.00 / no-scenecut-aware-qpconformance-window-offsets / right=0 / bottom=0 / decoder-max-rate=0 / no-vbv-live-multi-pass
Default : Yes
Forced : No
Color range : Limited

Audio #1
ID : 2
Format : AC-3
Format/Info : Audio Coding 3
Mode extension : CM (complete main)
Format settings, Endianness : Big
Codec ID : A_AC3
Duration : 41mn 59s
Bit rate mode : Constant
Bit rate : 448 Kbps
Channel(s) : 6 channels
Channel positions : Front: L C R, Side: L R, LFE
Sampling rate : 48.0 KHz
Compression mode : Lossy
Stream size : 135 MiB (21%)
Title : HDRezka Studio
Language : Russian
Default : Yes
Forced : No

Audio #2
ID : 3
Format : E-AC-3
Format/Info : Audio Coding 3
Format settings, Endianness : Big
Codec ID : A_EAC3
Duration : 41mn 59s
Bit rate mode : Constant
Bit rate : 256 Kbps
Channel(s) : 6 channels
Channel positions : Front: L C R, Side: L R, LFE
Sampling rate : 48.0 KHz
Compression mode : Lossy
Stream size : 76.9 MiB (12%)
Language : English
Default : No
Forced : No

Text #1
ID : 4
Format : UTF-8
Codec ID : S_TEXT/UTF8
Codec ID/Info : UTF-8 Plain Text
Title : rus (forced)
Language : Russian
Default : Yes
Forced : No

Text #2
ID : 5
Format : ASS
Codec ID : S_TEXT/ASS
Codec ID/Info : Advanced Sub Station Alpha
Compression mode : Lossless
Title : English
Language : English
Default : No
Forced : No
piratbit.pw



Скачать Бигфут через торрент https://i4.imageban.ru/out/2021/04/25/aff690f197a46130983040b9b6b19743.jpg Скачать фильм Бигфут через торрент бесплантно в хорошем качестве Описание: Во время посещения фермы марихуаны в 1993 году журналист-расследователь Дэвид Холхаус услышал, что на соседней ферме трое мужчин ... 10 10 4
Торрент: Зарегистрирован [2021-04-26 11:47] · скачан: 25 раз
Статус: √ проверено
Размер: 1.57 GB
Как cкачать? Как скачать Бигфут через торрент | UTorrent



Последний раз редактировалось: killermax2013 (2021-04-26 11:47), всего редактировалось 1 раз

28-11-2019 20:33  

Отключить всю рекламу на сайте

25-04-2021 17:38 Бигфут Скачать торрент  

Ну да. Рядом с фермой марихуаны. Мужиков порвал бигфут. А че. похоже на правду. Травка - огоньpiratbit.pw
Kkillermax2013 писал(а):




    Дорогой пользователь! Огромная просьба, поблагодарите релизера, оцените раздачу и оставьте свои комментарий, если Вы скачали Бигфут через торрент бесплатно! Внесите свою лепту в развитие PiratBit!
    Комментировать посты могут только пользователи прошедшие не сложную регистрацию
    Показать сообщения:    

    Бигфут через торрент
    Скачать бесплатно Бигфут
    Бигфут скачать торрент
    Бигфут смотреть онлайн
    Cкачать фильм Бигфут бесплатно
    Бигфут скачать торрент в хорошем качестве
    Бигфут смотреть онлайн бесплатно в хорошем качестве


    Вы не можете начинать темы
    Вы не можете отвечать на сообщения
    Вы не можете редактировать свои сообщения
    Вы не можете удалять свои сообщения
    Вы не можете голосовать в опросах
    Вы не можете прикреплять файлы к сообщениям
    Вы можете скачивать файлы