1 сезон

3 сезон

iTunes

1

iTunes

DUB Netflix

iTunes

13

1 сезон

RePack

30

Deluxe

pack

Легкие деньги

ВАЖНО

ИГРА 18+

pack

RePack

MK11

RePack

jed

RePack

fifa19

RePack

RDR2

RePack

NEED FOR SPEED™ PAYBACK

4 сезон

9 сезон

Бесстыжие 9 сезон

Все сериалы

все сериалы на PB.wtf

RePack

FAR CRY 5

Anonymous, доброе утро, мы не успеваем до 1 числа собрать деньги на оплату серверов, помогите нам пожалуйста в это трудное время. В качестве благодарности мы отключим Вам всю рекламу на сайте (укажите свой ник в строку Ваше имя)!

×
  
Magnet ссылка

Изгоняющий дьявола. Врата / Gates of Darkness (Дон Э. ФонтЛеРой) [2019 г., ужасы, триллер, WEB-DLRip, Дубляж "iTunes"] piratbit.pw

Изгоняющий дьявола. Врата через торрент piratbit.pw

Раздают: 2 [ 0 KB/s ] Качают: 1 [ 0 KB/s ]
Размер: 727 MB | Добавлен: 1 мес. 28 д. назад | Торрент скачан:31 раз
Скачать  

18-04-2021 18:15 Изгоняющий дьявола. Врата Скачать торрент  

Изгоняющий дьявола. Врата / Gates of Darkness
Год выпуска: 2019
Страна: США, Франция, Непал / In Extremis, Stephen G. Perry
Жанр: ужасы, триллер
Продолжительность:01:25:23
Перевод: Дубляж (iTunes)

Режиссер: Дон Э. ФонтЛеРой

rating

В ролях: Рэнди Шелли, Тобин Белл, Джон Сэвэдж, Эдриенн Барбо, Мэри Мэтилин Маусер, Александра Дейвис, Лесли-Энн Даун, Брэндон Бимер, Карлин Мур, Зен Геснер

Описание: Прошли годы с тех пор, как отец оставил своих детей Стивена и Мишель. Их мать снова вышла замуж, Мишель отлично ладит с новым отчимом и сводной сестрой Касли, но Стивен не принимает новых членов семьи и становится все более нервным и отстраненным. Его начинают преследовать мрачные видения из прошлого. По мере того как эти воспоминания обретают форму, Стивен начинает подозревать, что его отец никогда не бросал их, а столкнулся с дьявольскими силами. Когда его бабушка совершает шокирующий поступок, разоблачающий грехи сплоченной местной католической общины под надзором внушительного монсеньора Канелла, те же силы приходят за ним.

Качество: WEB-DLRip
Формат: AVI
Видео кодек: XviD
Аудио кодек: MP3
Видео: 640x344 (1.86:1), 24 fps, XviD MPEG-4 ~1048 kbps avg, 0.20 bit/pixel
Аудио: 48 kHz, MPEG Layer 3, 2 ch, ~128.00 kbps avg




Общее
Полное имя : G:\ФИЛЬМЫ\Изгоняющий дьявола. Врата.2019.D.WEB-DLRip.avi
Формат : AVI
Формат/Информация : Audio Video Interleave
Размер файла : 727 Мбайт
Продолжительность : 1 ч. 25 м.
Общий поток : 1 190 Кбит/сек
Название фильма : Изгоняющий дьявола. Врата.2019.D.WEB-DLRip.avi
Программа кодирования : Lavf58.12.100

Видео
Идентификатор : 0
Формат : MPEG-4 Visual
Профиль формата : Advanced Simple@L5
Настройки формата : BVOP1
Параметр BVOP формата : 1
Параметр QPel формата : Нет
Параметр GMC формата : Без точки перехода
Параметр матрицы формата : Default (MPEG)
Режим смешивания : Сжатый битовый поток
Идентификатор кодека : XVID
Идентификатор кодека/Подсказка : XviD
Продолжительность : 1 ч. 25 м.
Битрейт : 1 049 Кбит/сек
Ширина : 640 пикселей
Высота : 344 пикселя
Соотношение сторон : 1,85:1
Частота кадров : 24,000 кадра/сек
Цветовое пространство : YUV
Субдискретизация насыщенности : 4:2:0
Битовая глубина : 8 бит
Тип развёртки : Прогрессивная
Метод сжатия : С потерями
Бит/(Пиксели*Кадры) : 0.199
Размер потока : 641 Мбайт (88%)
Библиотека кодирования : XviD 67

Аудио
Идентификатор : 1
Формат : MPEG Audio
Версия формата : Version 1
Профиль формата : Layer 3
Настройки формата : Joint stereo / MS Stereo
Идентификатор кодека : 55
Идентификатор кодека/Подсказка : MP3
Продолжительность : 1 ч. 25 м.
Вид битрейта : Постоянный
Битрейт : 128 Кбит/сек
Каналы : 2 канала
Частота : 48,0 КГц
Метод сжатия : С потерями
Размер потока : 78,2 Мбайт (11%)
Выравнивание : Соединение по промежуткам
Продолжительность промежутка : 24 мс. (0,58 видеокадр)
Библиотека кодирования : LAME3.98.2

Report created by : MediaInfoLib - v21.03
Report created on : UTC 2021-04-18 17:59:23

piratbit.pw



Скачать Изгоняющий дьявола. Врата через торрент https://pic1.kartinco.top/new/img/2021-04/18/rdhd4fgmy6gopqtanueb7kame.jpg Скачать фильм Изгоняющий дьявола. Врата через торрент бесплантно в хорошем качестве Описание: Прошли годы с тех пор, как отец оставил своих детей Стивена и Мишель. Их мать снова вышла замуж, Мишель отлично ладит с новым ... 8.4 10 5
Info! Золотая раздача, скачанное не засчитывается.
Торрент: Зарегистрирован [2021-04-18 18:15] · скачан: 31 раз
Статус: √ проверено
Размер: 727 MB
Как cкачать? Как скачать Изгоняющий дьявола. Врата через торрент | UTorrent

28-11-2019 20:33  

Отключить всю рекламу на сайте

    Дорогой пользователь! Огромная просьба, поблагодарите релизера, оцените раздачу и оставьте свои комментарий, если Вы скачали Изгоняющий дьявола. Врата через торрент бесплатно! Внесите свою лепту в развитие PiratBit!
    Комментировать посты могут только пользователи прошедшие не сложную регистрацию
    Показать сообщения:    

    Изгоняющий дьявола. Врата через торрент
    Скачать бесплатно Изгоняющий дьявола. Врата
    Изгоняющий дьявола. Врата скачать торрент
    Изгоняющий дьявола. Врата смотреть онлайн
    Cкачать фильм Изгоняющий дьявола. Врата бесплатно
    Изгоняющий дьявола. Врата скачать торрент в хорошем качестве
    Изгоняющий дьявола. Врата смотреть онлайн бесплатно в хорошем качестве


    Вы не можете начинать темы
    Вы не можете отвечать на сообщения
    Вы не можете редактировать свои сообщения
    Вы не можете удалять свои сообщения
    Вы не можете голосовать в опросах
    Вы не можете прикреплять файлы к сообщениям
    Вы можете скачивать файлы