1 сезон

1 сезон

iTunes

1

КиноПоиск HD

Кинопоиск HD

iTunes

13

1 сезон

RePack

30

Ultimate

ВАЖНО

ИГРА 18+

pack

RePack

MK11
pack

Легкие деньги

RePack

jed

RePack

fifa19

RePack

RDR2

RePack

NEED FOR SPEED™ PAYBACK

4 сезон

9 сезон

Бесстыжие 9 сезон

Все сериалы

все сериалы на PB.wtf

RePack

FAR CRY 5
  
Magnet ссылка

День зверя / El Dia de la bestia (Алекс де ла Иглесиа) [1995 г., Черная комедия, BDRip-AVC, Авторский одноголосый Антон Алексеев] от ExKinoRay piratbit.pw

День зверя через торрент piratbit.pw

Раздают: 2 [ 0 KB/s ]
Размер: 2.78 GB | Добавлен: 25 д. назад | Торрент скачан:8 раз
Скачать  

28-03-2021 17:35 День зверя Скачать торрент  

День зверя / El Dia de la bestia
Год выпуска: 1995
Страна: Испания, Италия
Жанр: Черная комедия
Продолжительность: 01:43:46
Перевод: Авторский одноголосый Антон Алексеев

Режиссер: Алекс де ла Иглесиа

Бюджет: €2 100 000
Премьера в мире: 4 сентября 1995

rating

В ролях: Алекс Ангуло, Армандо Де Рацца, Сантьяго Сегура, Тереле Павес, Наталия Сесенья, Мария Грация Кучинотта, Джанни Ипполити, Хайме Бланч, Давид Пинилья, Антонио Дечент, Амайа Диас

Описание: Католический священник отец Анхель с помощью библии вычисляет день, когда на земле родится Антихрист. Он знает дату, но не знает место, поэтому пускается во все тяжкие, чтобы сам Дьявол подписал с ним контракт о покупке души. Помощниками святому отцу становятся случайный знакомый из магазина тяжелой музыки и популярный ведущий оккультной телепередачи.

Качество: BDRip-AVC
Формат: MKV
Видео кодек: MPEG4
Аудио кодек: AC3
Видео: 3200 Кбит/с, 1024x554, 24.000 кадра/сек
Аудио#1: Русский (AC3, 2 ch, 192 Кбит/с, 48 КГц)
Аудио#2: Испанский (AC3, 6 ch, 448 Кбит/с, 48 КГц)

x264 [info]: profile High, level 4.1
x264 [info]: frame I:1023 Avg QP:15.38 size: 75659
x264 [info]: frame P:34349 Avg QP:18.13 size: 29340
x264 [info]: frame B:114053 Avg QP:20.51 size: 12312
-----
Общее
Уникальный идентификатор : 252582730260912747697459196777422235611 (0xBE05AA13CA01F762929F2B6C4C65A7DB)
Полное имя : D:\MyRips\Den.Zvera.1995.BDRip-AVC.ExKinoRay.mkv
Формат : Matroska
Версия формата : Version 2
Размер файла : 2,78 Гбайт
Продолжительность : 1 ч. 43 м.
Общий поток : 3841 Кбит/сек
Дата кодирования : UTC 2021-03-28 16:15:12
Программа кодирования : mkvmerge v7.8.0 ('River Man') 32bit built on Apr 3 2015 12:11:22
Библиотека кодирования : libebml v1.3.1 + libmatroska v1.4.2

Видео
Идентификатор : 1
Формат : AVC
Формат/Информация : Advanced Video Codec
Профиль формата : High@L4.1
Настройки формата : CABAC / 12 Ref Frames
Параметр CABAC формата : Да
Параметр RefFrames формата : 12 кадров
Идентификатор кодека : V_MPEG4/ISO/AVC
Продолжительность : 1 ч. 43 м.
Битрейт : 3200 Кбит/сек
Ширина : 1024 пикселя
Высота : 554 пикселя
Соотношение сторон : 1,85:1
Режим частоты кадров : Постоянный
Частота кадров : 24,000 кадра/сек
Цветовое пространство : YUV
Субдискретизация насыщенности : 4:2:0
Битовая глубина : 8 бит
Тип развёртки : Прогрессивная
Бит/(Пиксели*Кадры) : 0.235
Размер потока : 2,26 Гбайт (81%)
Библиотека кодирования : x264 core 152 r2851 ba24899
Настройки программы : cabac=1 / ref=12 / deblock=1:-3:-2 / analyse=0x3:0x113 / me=umh / subme=10 / psy=1 / psy_rd=1.00:0.10 / mixed_ref=1 / me_range=32 / chroma_me=1 / trellis=2 / 8x8dct=1 / cqm=0 / deadzone=21,11 / fast_pskip=0 / chroma_qp_offset=-3 / threads=6 / lookahead_threads=1 / sliced_threads=0 / nr=0 / decimate=0 / interlaced=0 / bluray_compat=0 / constrained_intra=0 / bframes=14 / b_pyramid=2 / b_adapt=2 / b_bias=0 / direct=3 / weightb=1 / open_gop=0 / weightp=2 / keyint=240 / keyint_min=24 / scenecut=40 / intra_refresh=0 / rc=2pass / mbtree=0 / bitrate=3200 / ratetol=1.0 / qcomp=0.60 / qpmin=0 / qpmax=69 / qpstep=4 / cplxblur=20.0 / qblur=0.5 / ip_ratio=1.40 / pb_ratio=1.30 / aq=3:1.00
Язык : Spanish
Default : Да
Forced : Нет
Цветовой диапазон : Limited
Основные цвета : BT.709
Характеристики трансфера : BT.709
Коэффициенты матрицы : BT.709

Аудио #1
Идентификатор : 2
Формат : AC-3
Формат/Информация : Audio Coding 3
Коммерческое название : Dolby Digital
Идентификатор кодека : A_AC3
Продолжительность : 1 ч. 43 м.
Вид битрейта : Постоянный
Битрейт : 192 Кбит/сек
Каналы : 2 канала
Channel layout : L R
Частота : 48,0 КГц
Частота кадров : 31,250 кадров/сек (1536 SPF)
Битовая глубина : 16 бит
Метод сжатия : С потерями
Размер потока : 143 Мбайт (5%)
Заголовок : Антон Алексеев
Язык : Russian
ServiceKind/String : Complete Main
Default : Да
Forced : Нет

Аудио #2
Идентификатор : 3
Формат : AC-3
Формат/Информация : Audio Coding 3
Коммерческое название : Dolby Digital
Идентификатор кодека : A_AC3
Продолжительность : 1 ч. 43 м.
Вид битрейта : Постоянный
Битрейт : 448 Кбит/сек
Каналы : 6 каналов
Channel layout : L R C LFE Ls Rs
Частота : 48,0 КГц
Частота кадров : 31,250 кадров/сек (1536 SPF)
Битовая глубина : 16 бит
Метод сжатия : С потерями
Размер потока : 333 Мбайт (12%)
Язык : Spanish
ServiceKind/String : Complete Main
Default : Нет
Forced : Нет

Меню
00:00:00.000 : en:Chapter 01
00:02:49.250 : en:Chapter 02
00:09:13.250 : en:Chapter 03
00:12:12.250 : en:Chapter 04
00:16:36.916 : en:Chapter 05
00:21:20.208 : en:Chapter 06
00:24:33.833 : en:Chapter 07
00:32:33.875 : en:Chapter 08
00:41:01.583 : en:Chapter 09
00:51:49.916 : en:Chapter 10
00:55:22.875 : en:Chapter 11
01:00:09.166 : en:Chapter 12
01:06:40.250 : en:Chapter 13
01:10:38.541 : en:Chapter 14
01:15:34.583 : en:Chapter 15
01:20:25.666 : en:Chapter 16
01:28:01.250 : en:Chapter 17
01:32:56.125 : en:Chapter 18
01:38:31.291 : en:Chapter 19
01:40:43.416 : en:Chapter 20

piratbit.pw



Скачать День зверя через торрент http://a.radikal.ru/a39/2103/eb/dfd135474589.jpg Скачать фильм День зверя через торрент бесплантно в хорошем качестве Описание: Католический священник отец Анхель с помощью библии вычисляет день, когда на земле родится Антихрист. Он знает дату, но не знает ... 5 10 1
Info! Золотая раздача, скачанное не засчитывается.
Торрент: Зарегистрирован [2021-03-28 17:35] · скачан: 8 раз
Статус: √ проверено
Размер: 2.78 GB
Как cкачать? Как скачать День зверя через торрент | UTorrent

28-11-2019 20:33  

Отключить всю рекламу на сайте

    Дорогой пользователь! Огромная просьба, поблагодарите релизера, оцените раздачу и оставьте свои комментарий, если Вы скачали День зверя через торрент бесплатно! Внесите свою лепту в развитие PiratBit!
    Комментировать посты могут только пользователи прошедшие не сложную регистрацию
    Показать сообщения:    

    День зверя через торрент
    Скачать бесплатно День зверя
    День зверя скачать торрент
    День зверя смотреть онлайн
    Cкачать фильм День зверя бесплатно
    День зверя скачать торрент в хорошем качестве
    День зверя смотреть онлайн бесплатно в хорошем качестве


    Вы не можете начинать темы
    Вы не можете отвечать на сообщения
    Вы не можете редактировать свои сообщения
    Вы не можете удалять свои сообщения
    Вы не можете голосовать в опросах
    Вы не можете прикреплять файлы к сообщениям
    Вы можете скачивать файлы