1 сезон

3 сезон

iTunes

1

iTunes

DUB Netflix

iTunes

13

1 сезон

RePack

30

Deluxe

pack

Легкие деньги

ВАЖНО

ИГРА 18+

pack

RePack

MK11

RePack

jed

RePack

fifa19

RePack

RDR2

RePack

NEED FOR SPEED™ PAYBACK

4 сезон

9 сезон

Бесстыжие 9 сезон

Все сериалы

все сериалы на PB.wtf

RePack

FAR CRY 5

Anonymous, доброй ночи, мы не успеваем до 1 числа собрать деньги на оплату серверов, помогите нам пожалуйста в это трудное время. В качестве благодарности мы отключим Вам всю рекламу на сайте (укажите свой ник в строку Ваше имя)!

×
  
Magnet ссылка

Титька и луна / La teta y la luna (Бигас Луна) [1994 г., Эротика, мелодрама, комедия, BDRip 720p, Профессиональный (двухголосый)] от ExKinoRay piratbit.pw

Титька и луна через торрент piratbit.pw

Раздают: 3 [ 0 KB/s ]
Размер: 4.36 GB | Добавлен: 2 мес. 24 д. назад | Торрент скачан:190 раз
Скачать  

22-03-2021 05:30 Титька и луна Скачать торрент  

Титька и луна / La teta y la luna
Год выпуска: 1994
Страна: Испания, Франция
Жанр: Эротика, мелодрама, комедия
Продолжительность: 01:30:38
Перевод: Профессиональный (двухголосый)
Субтитры: Английские

Режиссер: Бигас Луна

Премьера в мире: 7 октября 1994

rating

В ролях: Бьель Дуран, Матильда Мэй, Жерар Дармон, Мигель Поведа, Абель Фолк, Лаура Манья, Хенис Санчес, Ксавье Массе, Виктория Лепори, Ксус Эструч, Джейн Харви, Ванесса Исберт, Джорди Бускетс, Диего Фернандез, Хавьер Бардем

Описание: Сознательная игра с элементами кича, апелляция к «низким жанрам» и неприхотливым вкусам публики, порой навязчивое использование сексуальных мотивов, любование собственной перверсивностью — всё это присутствует в картине «Титька и луна». Это рассказано с точки зрения наивного маленького мальчика Тете, мечтающего найти такую титьку, которая всегда будет поить его молоком, поможет взобраться наверх в акробатическом номере «пирамида» и даже достать недосягаемую луну!

Качество: BDRip 720p
Формат: MKV
Видео кодек: MPEG4
Аудио кодек: AC3
Видео: 6500 Кбит/с, 1280x546, 24.000 кадра/сек
Аудио#1: Русский (AC3, 2 ch, 192 Кбит/с, 48 КГц)
Аудио#2: Испанский (AC3, 2 ch, 192 Кбит/с, 48 КГц)
Релиз от:
x264 [info]: profile High, level 4.1
x264 [info]: frame I:729 Avg QP:16.44 size:136309
x264 [info]: frame P:27818 Avg QP:18.73 size: 54810
x264 [info]: frame B:101958 Avg QP:20.73 size: 27403
-----
Общее
Уникальный идентификатор : 229554681607095677028981148212543697658 (0xACB29F9EE27CA332B3C992B6FBBD32FA)
Полное имя : D:\MyRips\Lateta.laluna.1994.BDRip720p.ExKinoRay.mkv
Формат : Matroska
Версия формата : Version 2
Размер файла : 4,36 Гбайт
Продолжительность : 1 ч. 30 м.
Общий поток : 6886 Кбит/сек
Дата кодирования : UTC 2021-03-22 04:06:52
Программа кодирования : mkvmerge v7.8.0 ('River Man') 32bit built on Apr 3 2015 12:11:22
Библиотека кодирования : libebml v1.3.1 + libmatroska v1.4.2

Видео
Идентификатор : 1
Формат : AVC
Формат/Информация : Advanced Video Codec
Профиль формата : High@L4.1
Настройки формата : CABAC / 12 Ref Frames
Параметр CABAC формата : Да
Параметр RefFrames формата : 12 кадров
Идентификатор кодека : V_MPEG4/ISO/AVC
Продолжительность : 1 ч. 30 м.
Битрейт : 6500 Кбит/сек
Ширина : 1280 пикселей
Высота : 546 пикселей
Соотношение сторон : 2,35:1
Режим частоты кадров : Постоянный
Частота кадров : 24,000 кадра/сек
Цветовое пространство : YUV
Субдискретизация насыщенности : 4:2:0
Битовая глубина : 8 бит
Тип развёртки : Прогрессивная
Бит/(Пиксели*Кадры) : 0.388
Размер потока : 4,03 Гбайт (92%)
Библиотека кодирования : x264 core 152 r2851 ba24899
Настройки программы : cabac=1 / ref=12 / deblock=1:-3:-2 / analyse=0x3:0x113 / me=umh / subme=10 / psy=1 / psy_rd=1.00:0.10 / mixed_ref=1 / me_range=32 / chroma_me=1 / trellis=2 / 8x8dct=1 / cqm=0 / deadzone=21,11 / fast_pskip=0 / chroma_qp_offset=-3 / threads=6 / lookahead_threads=1 / sliced_threads=0 / nr=0 / decimate=0 / interlaced=0 / bluray_compat=0 / constrained_intra=0 / bframes=12 / b_pyramid=2 / b_adapt=2 / b_bias=0 / direct=3 / weightb=1 / open_gop=0 / weightp=2 / keyint=240 / keyint_min=24 / scenecut=40 / intra_refresh=0 / rc=2pass / mbtree=0 / bitrate=6500 / ratetol=1.0 / qcomp=0.60 / qpmin=0 / qpmax=69 / qpstep=4 / cplxblur=20.0 / qblur=0.5 / ip_ratio=1.40 / pb_ratio=1.30 / aq=3:1.00
Язык : English
Default : Да
Forced : Нет
Цветовой диапазон : Limited
Основные цвета : BT.709
Характеристики трансфера : BT.709
Коэффициенты матрицы : BT.709

Аудио #1
Идентификатор : 2
Формат : AC-3
Формат/Информация : Audio Coding 3
Коммерческое название : Dolby Digital
Идентификатор кодека : A_AC3
Продолжительность : 1 ч. 30 м.
Вид битрейта : Постоянный
Битрейт : 192 Кбит/сек
Каналы : 2 канала
Channel layout : L R
Частота : 48,0 КГц
Частота кадров : 31,250 кадров/сек (1536 SPF)
Битовая глубина : 16 бит
Метод сжатия : С потерями
Размер потока : 124 Мбайт (3%)
Заголовок : Профессиональный двухголосый
Язык : Russian
ServiceKind/String : Complete Main
Default : Да
Forced : Нет

Аудио #2
Идентификатор : 3
Формат : AC-3
Формат/Информация : Audio Coding 3
Коммерческое название : Dolby Digital
Идентификатор кодека : A_AC3
Продолжительность : 1 ч. 30 м.
Вид битрейта : Постоянный
Битрейт : 192 Кбит/сек
Каналы : 2 канала
Channel layout : L R
Частота : 48,0 КГц
Частота кадров : 31,250 кадров/сек (1536 SPF)
Битовая глубина : 16 бит
Метод сжатия : С потерями
Размер потока : 124 Мбайт (3%)
Язык : Spanish
ServiceKind/String : Complete Main
Default : Нет
Forced : Нет

Текст
Идентификатор : 4
Формат : UTF-8
Идентификатор кодека : S_TEXT/UTF8
Идентификатор кодека/Информация : UTF-8 Plain Text
Язык : English
Default : Нет
Forced : Нет

Меню
00:00:00.000 : en:Chapter 01
00:07:55.000 : en:Chapter 02
00:19:03.125 : en:Chapter 03
00:25:56.125 : en:Chapter 04
00:37:49.500 : en:Chapter 05
00:46:49.000 : en:Chapter 06
00:53:54.500 : en:Chapter 07
01:03:18.000 : en:Chapter 08
01:09:33.250 : en:Chapter 09
01:20:32.250 : en:Chapter 10
01:27:04.000 : en:Chapter 11

piratbit.pw



Скачать Титька и луна через торрент http://c.radikal.ru/c43/2103/fe/fc2c3d9b4acf.jpg Скачать фильм Титька и луна через торрент бесплантно в хорошем качестве Описание: Сознательная игра с элементами кича, апелляция к «низким жанрам» и неприхотливым вкусам публики, порой навязчивое использование ... 9.5 10 10
Info! Золотая раздача, скачанное не засчитывается.
Торрент: Зарегистрирован [2021-03-22 05:30] · скачан: 190 раз
Статус: √ проверено
Размер: 4.36 GB
Как cкачать? Как скачать Титька и луна через торрент | UTorrent

28-11-2019 20:33  

Отключить всю рекламу на сайте

22-03-2021 11:39 Титька и луна Скачать торрент  

Топик был перенесен из форума Оформление раздач (Кино, Видео и ТВ) в форум Фильмы [HD 720p, 1080p] (Звук Cam, VO, DVO)


Enigma2010piratbit.pw



30-03-2021 08:22 Титька и луна Скачать торрент  

Титька???... piratbit.pw



    Дорогой пользователь! Огромная просьба, поблагодарите релизера, оцените раздачу и оставьте свои комментарий, если Вы скачали Титька и луна через торрент бесплатно! Внесите свою лепту в развитие PiratBit!
    Комментировать посты могут только пользователи прошедшие не сложную регистрацию
    Показать сообщения:    

    Титька и луна через торрент
    Скачать бесплатно Титька и луна
    Титька и луна скачать торрент
    Титька и луна смотреть онлайн
    Cкачать фильм Титька и луна бесплатно
    Титька и луна скачать торрент в хорошем качестве
    Титька и луна смотреть онлайн бесплатно в хорошем качестве


    Вы не можете начинать темы
    Вы не можете отвечать на сообщения
    Вы не можете редактировать свои сообщения
    Вы не можете удалять свои сообщения
    Вы не можете голосовать в опросах
    Вы не можете прикреплять файлы к сообщениям
    Вы можете скачивать файлы