1 сезон

3 сезон

iTunes

1

iTunes

DUB Netflix

iTunes

13

1 сезон

RePack

30

Deluxe

pack

Легкие деньги

ВАЖНО

ИГРА 18+

pack

RePack

MK11

RePack

jed

RePack

fifa19

RePack

RDR2

RePack

NEED FOR SPEED™ PAYBACK

4 сезон

9 сезон

Бесстыжие 9 сезон

Все сериалы

все сериалы на PB.wtf

RePack

FAR CRY 5

Anonymous, доброй ночи, мы не успеваем до 1 числа собрать деньги на оплату серверов, помогите нам пожалуйста в это трудное время. В качестве благодарности мы отключим Вам всю рекламу на сайте (укажите свой ник в строку Ваше имя)!

×
  
Magnet ссылка

Папина дочка / Daddy's Girl (Джулиан Ричардс) [2018 г., Ужасы, триллер, криминал, BDRip 1080p, Любительский (двухголосый) (Синема УС)] piratbit.pw

Папина дочка через торрент piratbit.pw

Раздают: 2 [ 0 KB/s ]
Размер: 3.51 GB | Добавлен: 2 мес. 30 д. назад | Торрент скачан:91 раз
Скачать  

16-03-2021 10:08 Папина дочка Скачать торрент  

Папина дочка /
Daddy's Girl
Год выпуска: 2018
Страна: США
Жанр: Ужасы, триллер, криминал
Продолжительность: 01:20:55
Перевод: Любительский (двухголосый)

Режиссер: Джулиан Ричардс

Премьера в мире: 4 октября 2018

rating

В ролях: Джемма Даллендер, Костас Мэндилор, Джесси Мосс, Бритт Маккиллип, Микаври Амайя, Марк Арнольд, Диана Кэа, Энни Куигли, Чериз Сильвестри

Описание: Девушку держит в плену собственный отчим, являющийся серийным убийцей. Он использует её в своих жестоких преступлениях в качестве наживки для потенциальных жертв. Когда на их след выйдет полиция, девушке придётся решить, готова ли она пойти против маньяка.

Качество: BDRip 1080p
Формат: MKV
Видео кодек: H.264
Аудио кодек: AC3
Видео: AVC/H.264, 1920х808, ~5898 Kbps
Аудио#1: AC3, 2 ch, 192 kbps - Любительский (двухголосый закадровый) (Синема УС)
Релиз от: winchester00100010
Рип достал с зарубежного торрент трекера, синхронизировал звук с HDRip раздачи
Перевод: Любительский (двухголосый закадровый) (Синема УС)

Общее
Уникальный идентификатор : 249624917511323808382439975216441711052 (0xBBCC02A64C9BD51CB3C89427C133D9CC)
Полное имя : D:\Мои раздачи и рипы\Daddys.Girl.2018.BDRip.1080p.mkv
Формат : Matroska
Версия формата : Version 2
Размер файла : 3,51 Гбайт
Продолжительность : 1 ч. 20 м.
Общий поток : 6 214 Кбит/сек
Дата кодирования : UTC 2020-10-28 02:59:54
Программа кодирования : mkvmerge v5.8.0 ('No Sleep / Pillow') built on Sep 2 2012 15:37:04
Библиотека кодирования : libebml v1.2.3 + libmatroska v1.3.0

Видео
Идентификатор : 1
Формат : AVC
Формат/Информация : Advanced Video Codec
Профиль формата : High@L4.1
Настройки формата : CABAC / 5 Ref Frames
Параметр CABAC формата : Да
Параметр RefFrames формата : 5 кадров
Идентификатор кодека : V_MPEG4/ISO/AVC
Продолжительность : 1 ч. 20 м.
Битрейт : 5 898 Кбит/сек
Ширина : 1 920 пикселей
Высота : 808 пикселей
Соотношение сторон : 2,40:1
Режим частоты кадров : Постоянный
Частота кадров : 24,000 кадра/сек
Цветовое пространство : YUV
Субдискретизация насыщенности : 4:2:0
Битовая глубина : 8 бит
Тип развёртки : Прогрессивная
Бит/(Пиксели*Кадры) : 0.158
Размер потока : 3,33 Гбайт (95%)
Библиотека кодирования : x264 core 161 r3018 db0d417
Настройки программы : cabac=1 / ref=5 / deblock=1:-3:-3 / analyse=0x3:0x133 / me=umh / subme=9 / psy=1 / psy_rd=1.00:0.00 / mixed_ref=1 / me_range=16 / chroma_me=1 / trellis=2 / 8x8dct=1 / cqm=0 / deadzone=21,11 / fast_pskip=0 / chroma_qp_offset=-2 / threads=25 / lookahead_threads=2 / sliced_threads=0 / nr=0 / decimate=1 / interlaced=0 / bluray_compat=0 / constrained_intra=0 / bframes=3 / b_pyramid=2 / b_adapt=2 / b_bias=0 / direct=3 / weightb=1 / open_gop=0 / weightp=2 / keyint=250 / keyint_min=24 / scenecut=40 / intra_refresh=0 / rc_lookahead=60 / rc=crf / mbtree=1 / crf=17.0 / qcomp=0.60 / qpmin=0 / qpmax=69 / qpstep=4 / ip_ratio=1.40 / aq=1:1.00
Язык : English
Default : Да
Forced : Нет
Duration_Source : General_Duration

Аудио
Идентификатор : 2
Формат : AC-3
Формат/Информация : Audio Coding 3
Коммерческое название : Dolby Digital
Идентификатор кодека : A_AC3
Продолжительность : 1 ч. 20 м.
Вид битрейта : Постоянный
Битрейт : 192 Кбит/сек
Каналы : 2 канала
Channel layout : L R
Частота : 48,0 КГц
Частота кадров : 31,250 кадров/сек (1536 SPF)
Метод сжатия : С потерями
Размер потока : 111 Мбайт (3%)
Service kind : Complete Main
Default : Да
Forced : Нет
Duration_Source : General_Duration

piratbit.pw



Скачать Папина дочка через торрент https://i4.imageban.ru/out/2021/03/16/eda70b7cafdfa2d19beca2bf99b84786.jpg Скачать фильм Папина дочка через торрент бесплантно в хорошем качестве Описание: Девушку держит в плену собственный отчим, являющийся серийным убийцей. Он использует её в своих жестоких преступлениях в качестве ... 9.8 10 5
Info! Золотая раздача, скачанное не засчитывается.
Торрент: Зарегистрирован [2021-03-16 10:08] · скачан: 91 раз
Статус: √ проверено
Размер: 3.51 GB
Как cкачать? Как скачать Папина дочка через торрент | UTorrent



Последний раз редактировалось: winchester00100010 (2021-03-16 10:40), всего редактировалось 1 раз

28-11-2019 20:33  

Отключить всю рекламу на сайте


16-03-2021 10:09 Папина дочка Скачать торрент  

Всем приятного просмотра)), стоим и раздаем после скачивания, дайте и другим тоже скачатьpiratbit.pw



16-03-2021 15:55 Папина дочка Скачать торрент  

winchester00100010 писал(а):

Всем приятного просмотра)), стоим и раздаем после скачивания, дайте и другим тоже скачать

Спасибо )piratbit.pw



16-03-2021 17:54 Папина дочка Скачать торрент  

sony666 писал(а):

winchester00100010 писал(а):

Всем приятного просмотра)), стоим и раздаем после скачивания, дайте и другим тоже скачать

Спасибо )

Не за что, главное раздавайте)piratbit.pw



17-03-2021 02:15 Папина дочка Скачать торрент  

Топик был перенесен из форума Фильмы [HD 720p, 1080p] (Хороший звук DUB, MVO) в форум Фильмы [HD 720p, 1080p] (Звук Cam, VO, DVO)


Enigma2010piratbit.pw



19-03-2021 05:29 Папина дочка Скачать торрент  

за труды спасибоpiratbit.pw



    Дорогой пользователь! Огромная просьба, поблагодарите релизера, оцените раздачу и оставьте свои комментарий, если Вы скачали Папина дочка через торрент бесплатно! Внесите свою лепту в развитие PiratBit!
    Комментировать посты могут только пользователи прошедшие не сложную регистрацию
    Показать сообщения:    

    Папина дочка через торрент
    Скачать бесплатно Папина дочка
    Папина дочка скачать торрент
    Папина дочка смотреть онлайн
    Cкачать фильм Папина дочка бесплатно
    Папина дочка скачать торрент в хорошем качестве
    Папина дочка смотреть онлайн бесплатно в хорошем качестве


    Вы не можете начинать темы
    Вы не можете отвечать на сообщения
    Вы не можете редактировать свои сообщения
    Вы не можете удалять свои сообщения
    Вы не можете голосовать в опросах
    Вы не можете прикреплять файлы к сообщениям
    Вы можете скачивать файлы