1 сезон

1 сезон

iTunes

1

КиноПоиск HD

Кинопоиск HD

iTunes

13

1 сезон

RePack

30

Новинка

ВАЖНО

ИГРА 18+

pack

RePack

MK11
pack

Легкие деньги

RePack

jed

RePack

fifa19

RePack

RDR2

RePack

NEED FOR SPEED™ PAYBACK

4 сезон

9 сезон

Бесстыжие 9 сезон

Все сериалы

все сериалы на PB.wtf

RePack

FAR CRY 5
  
Magnet ссылка

Девушка с центрального разворота / Centrespread (Тони Патерсон) [1981 г., Фантастика, драма, BDRip 720p] AVO (Визгунов) piratbit.pw

Девушка с центрального разворота через торрент piratbit.pw

Размер: 4.83 GB | Добавлен: 1 мес. 15 д. назад | Торрент скачан:22 раза
Скачать  

06-03-2021 20:59 Девушка с центрального разворота Скачать торрент  

Девушка с центрального разворота / Centrespread
Год выпуска: 1981

Страна: Австралия

Жанр: Фантастика, драма

Продолжительность: 01:22:30

Перевод: Авторский (одноголосый) - Визгунов

Субтитры: Отсутствуют

Режиссер: Тони Патерсон

rating

В ролях: Кайли Фостер, Пол Трэйер, Марк Уотсон, Айвор Луис, Джек Нит, Эдсон Аннан, Паула Картер, Колин Молья, Кармен Дж. МакКолл, Хелина МакКолл

Описание: Условное будущее. Жерар - успешный фотограф в эротическом журнале, который издаёт Центр. Неожиданно ему поручают найти девушку, абсолютно не похожую на его обычных моделей - кого-то с новым обликом, свежим взглядом - девушку, годящуюся для нового века.
Качество: BDRip 720p
Формат: MKV
Видео: MPEG-4 AVC, 8000 Кбит/с, 1280x694
Аудио#1: Русский, AC3, 2 ch, 192 Кбит/сек
Аудио#2: Английский, AC3, 2 ch, 192 Кбит/сек
Видео
Идентификатор : 1
Формат : AVC
Формат/Информация : Advanced Video Codec
Профиль формата : High@L4.1
Настройки формата : CABAC / 9 Ref Frames
Параметр CABAC формата : Да
Параметр RefFrames формата : 9 кадров
Идентификатор кодека : V_MPEG4/ISO/AVC
Продолжительность : 1 ч. 22 м.
Битрейт : 8000 Кбит/сек
Ширина : 1280 пикселей
Высота : 694 пикселя
Соотношение сторон : 1,85:1
Режим частоты кадров : Постоянный
Частота кадров : 23,976 (24000/1001) кадра/сек
Цветовое пространство : YUV
Субдискретизация насыщенности : 4:2:0
Битовая глубина : 8 бит
Тип развёртки : Прогрессивная
Бит/(Пиксели*Кадры) : 0.376
Размер потока : 4,51 Гбайт (93%)
Библиотека кодирования : x264 core 152 r2851 ba24899
Настройки программы : cabac=1 / ref=9 / deblock=1:-3:-2 / analyse=0x3:0x113 / me=umh / subme=10 / psy=1 / psy_rd=1.00:0.10 / mixed_ref=1 / me_range=32 / chroma_me=1 / trellis=2 / 8x8dct=1 / cqm=0 / deadzone=21,11 / fast_pskip=0 / chroma_qp_offset=-3 / threads=6 / lookahead_threads=1 / sliced_threads=0 / nr=0 / decimate=0 / interlaced=0 / bluray_compat=0 / constrained_intra=0 / bframes=12 / b_pyramid=2 / b_adapt=2 / b_bias=0 / direct=3 / weightb=1 / open_gop=0 / weightp=2 / keyint=240 / keyint_min=23 / scenecut=40 / intra_refresh=0 / rc=2pass / mbtree=0 / bitrate=8000 / ratetol=1.0 / qcomp=0.60 / qpmin=0 / qpmax=69 / qpstep=4 / cplxblur=20.0 / qblur=0.5 / ip_ratio=1.40 / pb_ratio=1.30 / aq=3:1.00
Язык : English
Default : Да
Forced : Нет
Цветовой диапазон : Limited
Основные цвета : BT.709
Характеристики трансфера : BT.709
Коэффициенты матрицы : BT.709

Аудио #1
Идентификатор : 2
Формат : AC-3
Формат/Информация : Audio Coding 3
Коммерческое название : Dolby Digital
Идентификатор кодека : A_AC3
Продолжительность : 1 ч. 22 м.
Вид битрейта : Постоянный
Битрейт : 192 Кбит/сек
Каналы : 2 канала
ChannelLayout : L R
Частота : 48,0 КГц
Частота кадров : 31,250 кадров/сек (1536 SPF)
Метод сжатия : С потерями
Размер потока : 113 Мбайт (2%)
Заголовок : С. Визгунов
Язык : Russian
ServiceKind/String : Complete Main
Default : Да
Forced : Нет

Аудио #2
Идентификатор : 3
Формат : AC-3
Формат/Информация : Audio Coding 3
Коммерческое название : Dolby Digital
Идентификатор кодека : A_AC3
Продолжительность : 1 ч. 22 м.
Вид битрейта : Постоянный
Битрейт : 192 Кбит/сек
Каналы : 2 канала
ChannelLayout : L R
Частота : 48,0 КГц
Частота кадров : 31,250 кадров/сек (1536 SPF)
Метод сжатия : С потерями
Размер потока : 113 Мбайт (2%)
Язык : English
ServiceKind/String : Complete Main
Default : Нет
Forced : Нет

Меню
00:00:00.000 : en:Chapter 01
00:00:00.959 : en:Chapter 02
00:08:19.999 : en:Chapter 03
00:14:39.420 : en:Chapter 04
00:22:22.174 : en:Chapter 05
00:26:04.020 : en:Chapter 06
00:36:06.539 : en:Chapter 07
00:43:44.538 : en:Chapter 08
00:53:14.816 : en:Chapter 09
00:57:02.419 : en:Chapter 10
01:03:24.550 : en:Chapter 11
01:12:35.267 : en:Chapter 12
01:20:07.427 : en:Chapter 13

скриншот   скриншот   скриншот   скриншот  
piratbit.pw



Скачать Девушка с центрального разворота через торрент https://pic1.kartinco.top/new/img/2021-03/06/ukzdr2cwbs4u6rvk6jtvendw4.png Скачать фильм Девушка с центрального разворота через торрент бесплантно в хорошем качестве Описание: Условное будущее. Жерар - успешный фотограф в эротическом журнале, который издаёт Центр. Неожиданно ему поручают найти девушку, ... 1.5 10 2
Торрент: Зарегистрирован [2021-03-06 20:59] · скачан: 22 раз
Статус: √ проверено
Размер: 4.83 GB
Как cкачать? Как скачать Девушка с центрального разворота через торрент | UTorrent

28-11-2019 20:33  

Отключить всю рекламу на сайте

    Дорогой пользователь! Огромная просьба, поблагодарите релизера, оцените раздачу и оставьте свои комментарий, если Вы скачали Девушка с центрального разворота через торрент бесплатно! Внесите свою лепту в развитие PiratBit!
    Комментировать посты могут только пользователи прошедшие не сложную регистрацию
    Показать сообщения:    

    Девушка с центрального разворота через торрент
    Скачать бесплатно Девушка с центрального разворота
    Девушка с центрального разворота скачать торрент
    Девушка с центрального разворота смотреть онлайн
    Cкачать фильм Девушка с центрального разворота бесплатно
    Девушка с центрального разворота скачать торрент в хорошем качестве
    Девушка с центрального разворота смотреть онлайн бесплатно в хорошем качестве


    Вы не можете начинать темы
    Вы не можете отвечать на сообщения
    Вы не можете редактировать свои сообщения
    Вы не можете удалять свои сообщения
    Вы не можете голосовать в опросах
    Вы не можете прикреплять файлы к сообщениям
    Вы можете скачивать файлы