2 сезон

iTunes

WEBRip

1

2 сезон

iTunes

1 сезон

1 сезон

RePack

30

Новинка

ВАЖНО

ИГРА 18+

pack

RePack

MK11
pack

Легкие деньги

RePack

jed

RePack

fifa19

RePack

RDR2

RePack

NEED FOR SPEED™ PAYBACK

4 сезон

9 сезон

Бесстыжие 9 сезон

Все сериалы

все сериалы на PB.wtf

RePack

FAR CRY 5

Anonymous, доброй ночи, мы не успеваем собрать деньги на оплату серверов за февраль, помогите нам пожалуйста в это трудное время. В качестве благодарности мы отключим Вам всю рекламу на сайте (укажите свой ник в строку Ваше имя)!

×
  
Magnet ссылка

Обратная связь (Алексей Нужный) [2020, Комедия, WEB-DLRip-AVC] piratbit.pw

Обратная связь через торрент piratbit.pw

Раздают: 22 [ 259 KB/s ]
Размер: 1.46 GB | Добавлен: 9 д. назад | Торрент скачан:215 раз
Скачать  

20-02-2021 13:02 Обратная связь Скачать торрент  

Обратная связь
Год выпуска: 2020
Страна: Россия
Выпущено: АМЕДИА, Марс Медиа Энтертейнмент, Стрела
Жанр: Комедия
Продолжительность: 01:36:40
Перевод: Не требуется | iTunes
Субтитры: отсутствуют

Режиссер: Алексей Нужный

rating

В ролях: Леонид Барац, Ирина Горбачёва, Ростислав Хаит, Мария Миронова, Камиль Ларин, Анастасия Уколова, Александр Демидов

Описание: 31 декабря семеро друзей вновь собираются в загородном доме, чтобы вместе встретить Новый год, но предновогодний вечер полон сюрпризов... И все это в интерьерах дома с камином, который стоит в заснеженном коттеджном поселке, а фоном звучат мелодии из культовых советских новогодних комедий и мультфильмов. Главная тема фильма – «Правда о себе со стороны другого человека».

Качество: WEB-DLRip-AVC
Формат: MKV

Видео: MPEG-4 AVC, ~ 1965 Кбит/с, 1024x432, 24 кадр/с
Аудио: 48 kHz, AC3 Dolby Digital, 2/0 (L, R) ch, ~192 Kbps | iTunes
скриншот  скриншот  скриншот  скриншот  

General
Unique ID : 204546747194864607879759157956423092683 (0x99E245426F3966CFB41D63EE2EBE89CB)
Complete name : F:Obratnaya.svyaz.(2020).WEB-DLRip.(AVC).by.Серый1779.Files-x.mkv
Format : Matroska
Format version : Version 2
File size : 1.46 GiB
Duration : 1 h 36 min
Overall bit rate : 2 158 kb/s
Encoded date : UTC 2021-02-17 05:15:55
Writing application : mkvmerge v7.8.0 ('River Man') 32bit built on Apr 3 2015 12:11:22
Writing library : libebml v1.3.1 + libmatroska v1.4.2

Video
ID : 1
Format : AVC
Format/Info : Advanced Video Codec
Format profile : High@L4.1
Format settings : CABAC / 9 Ref Frames
Format settings, CABAC : Yes
Format settings, RefFrames : 9 frames
Codec ID : V_MPEG4/ISO/AVC
Duration : 1 h 36 min
Bit rate : 1 965 kb/s
Width : 1 024 pixels
Height : 432 pixels
Display aspect ratio : 2.40:1
Frame rate mode : Constant
Frame rate : 24.000 FPS
Color space : YUV
Chroma subsampling : 4:2:0
Bit depth : 8 bits
Scan type : Progressive
Bits/(Pixel*Frame) : 0.185
Stream size : 1.30 GiB (89%)
Writing library : x264 core 146 r2538 121396c
Encoding settings : cabac=1 / ref=9 / deblock=1:-2:-1 / analyse=0x3:0x133 / me=umh / subme=9 / psy=1 / psy_rd=1.00:0.15 / mixed_ref=1 / me_range=32 / chroma_me=1 / trellis=2 / 8x8dct=1 / cqm=0 / deadzone=21,11 / fast_pskip=0 / chroma_qp_offset=-3 / threads=18 / lookahead_threads=3 / sliced_threads=0 / nr=0 / decimate=1 / interlaced=0 / bluray_compat=0 / constrained_intra=0 / bframes=9 / b_pyramid=2 / b_adapt=2 / b_bias=0 / direct=3 / weightb=1 / open_gop=0 / weightp=2 / keyint=250 / keyint_min=23 / scenecut=40 / intra_refresh=0 / rc=2pass / mbtree=0 / bitrate=1965 / ratetol=1.0 / qcomp=0.60 / qpmin=0 / qpmax=69 / qpstep=4 / cplxblur=20.0 / qblur=0.5 / ip_ratio=1.40 / pb_ratio=1.30 / aq=2:1.00
Default : Yes
Forced : No
Color range : Limited
Color primaries : BT.709
Transfer characteristics : BT.709
Matrix coefficients : BT.709

Audio
ID : 2
Format : AC-3
Format/Info : Audio Coding 3
Format settings, Endianness : Big
Codec ID : A_AC3
Duration : 1 h 36 min
Bit rate mode : Constant
Bit rate : 192 kb/s
Channel(s) : 2 channels
Channel positions : Front: L R
Sampling rate : 48.0 kHz
Frame rate : 31.250 FPS (1536 SPF)
Bit depth : 16 bits
Compression mode : Lossy
Stream size : 133 MiB (9%)
Service kind : Complete Main
Default : Yes
Forced : No

piratbit.pw



Скачать Обратная связь через торрент https://d.radikal.ru/d18/2102/17/be2796f5ca3e.png Скачать фильм Обратная связь через торрент бесплантно в хорошем качестве Описание: 31 декабря семеро друзей вновь собираются в загородном доме, чтобы вместе встретить Новый год, но предновогодний вечер полон ... 8 10 9
Торрент: Зарегистрирован [2021-02-20 13:02] · скачан: 215 раз
Статус: √ проверено
Размер: 1.46 GB
Как cкачать? Как скачать Обратная связь через торрент | UTorrent

% Раздел Тема Автор DL S | L
Наши фильмы (HD, WEB-DL 720p, 1080p) [ 4.49 GB ] Обратная связь [2020 WEBRip 1080p] DEVI Скачать
87 | 1
Наши фильмы (HD, WEB-DL 720p, 1080p) [ 3.29 GB ] Обратная связь [2020 WEB-DL 1080p] bober100 Скачать
49 | 1
Наши новые фильмы 2020 - 2021 [ 1.46 GB ] Обратная связь [2020 WEB-DLRip] bober100 Скачать
14 | 0
Фильмы 2019-2020 [DVDrip, WEB-DLRip, HDrip] (DUB, MVO) [ 746 MB ] Обратная связь / Feedback [2019 HDRip] bober100 Скачать
2 | 0
Фильмы (Blu-ray, BD-Remux, HDDVD) [ 13.74 GB ] Обратная связь / Feedback [2019 BD Remux 1080p] bober100 Скачать
1 | 0
Фильмы [HD 720p, 1080p] (Хороший звук DUB, MVO) [ 7.18 GB ] Обратная связь / Feedback [2019 BDRip 1080p] bober100 Скачать
1 | 0
Фильмы [HD 720p, 1080p] (Хороший звук DUB, MVO) [ 3.41 GB ] Обратная связь / Feedback [2019 BDRip 720p] bober100 Скачать
2 | 0

28-11-2019 20:33  

Отключить всю рекламу на сайте


    Дорогой пользователь! Огромная просьба, поблагодарите релизера, оцените раздачу и оставьте свои комментарий, если Вы скачали Обратная связь через торрент бесплатно! Внесите свою лепту в развитие PiratBit!
    Комментировать посты могут только пользователи прошедшие не сложную регистрацию
    Показать сообщения:    

    Обратная связь через торрент
    Скачать бесплатно Обратная связь
    Обратная связь скачать торрент
    Обратная связь смотреть онлайн
    Cкачать фильм Обратная связь бесплатно
    Обратная связь скачать торрент в хорошем качестве
    Обратная связь смотреть онлайн бесплатно в хорошем качестве


    Вы не можете начинать темы
    Вы не можете отвечать на сообщения
    Вы не можете редактировать свои сообщения
    Вы не можете удалять свои сообщения
    Вы не можете голосовать в опросах
    Вы не можете прикреплять файлы к сообщениям
    Вы можете скачивать файлы