2 сезон

iTunes

WEBRip

1

2 сезон

iTunes

1 сезон

1 сезон

RePack

30

Новинка

ВАЖНО

ИГРА 18+

pack

RePack

MK11
pack

Легкие деньги

RePack

jed

RePack

fifa19

RePack

RDR2

RePack

NEED FOR SPEED™ PAYBACK

4 сезон

9 сезон

Бесстыжие 9 сезон

Все сериалы

все сериалы на PB.wtf

RePack

FAR CRY 5

Anonymous, доброй ночи, мы не успеваем собрать деньги на оплату серверов за февраль, помогите нам пожалуйста в это трудное время. В качестве благодарности мы отключим Вам всю рекламу на сайте (укажите свой ник в строку Ваше имя)!

×
  
Magnet ссылка

Серебряные коньки (Михаил Локшин) [2020, История, мелодрама, приключения, фэнтези, драма, WEB-DLRip-AVC] [iTunes] piratbit.pw

Серебряные коньки через торрент piratbit.pw

Раздают: 7 [ 0 KB/s ]
Размер: 2.05 GB | Добавлен: 13 д. назад | Торрент скачан:152 раза
Скачать  

20-02-2021 06:45 Серебряные коньки Скачать торрент  

Серебряные коньки
Год выпуска: 2020
Страна: Россия
Студия: Централ Партнершип, ГПМ КИТ, Кинослово, Студия Тритэ
Жанр: История, мелодрама, приключения, фэнтези, драма
Продолжительность: 02:16:37
Перевод: Не требуется | iTunes
Субтитры: отсутствуют

Режиссер: Михаил Локшин

rating

В ролях: Федор Федотов, Софья Присс, Алексей Гуськов, Северия Янушаускайте, Кирилл Зайцев, Юра Борисов, Тимофей Трибунцев, Юрий Колокольников, Сергей Колтаков, Василий Копейкин и др.

Описание: 1899 год, рождественский Петербург. Яркая праздничная жизнь бурлит на скованных льдом реках и каналах столицы. Накануне нового столетия судьба сводит тех, кому, казалось бы, не суждено было встретиться. Люди из совершенно разных миров, Матвей - сын фонарщика, его единственное богатство - доставшиеся по наследству посеребренные коньки; Алиса - дочь крупного сановника, грезящая о науке. У каждого - своя непростая история, но, однажды столкнувшись, они устремляются к мечте вместе.

Качество: WEB-DLRip-AVC
Формат: MKV

Видео: MPEG-4 AVC, ~ 1758 Кбит/с, 1024x432, 24 кадр/с
Аудио: 48 kHz, AC3 Dolby Digital, 3/2 (L,C,R,l,r) + LFE ch, ~384 kbps
скриншот  скриншот  скриншот  скриншот  скриншот  

General
Unique ID : 184366093831232572275160306239675795771 (0x8AB39E3ABF8FEFA0ADBCF5BB7513893B)
Complete name : F:Serebryanye Konki.(2020).WEB-DLRip.(AVC).by.Серый1779.Files-x.mkv
Format : Matroska
Format version : Version 2
File size : 2.05 GiB
Duration : 2 h 16 min
Overall bit rate : 2 143 kb/s
Encoded date : UTC 2021-02-19 12:12:07
Writing application : mkvmerge v7.8.0 ('River Man') 32bit built on Apr 3 2015 12:11:22
Writing library : libebml v1.3.1 + libmatroska v1.4.2

Video
ID : 1
Format : AVC
Format/Info : Advanced Video Codec
Format profile : High@L4.1
Format settings : CABAC / 10 Ref Frames
Format settings, CABAC : Yes
Format settings, RefFrames : 10 frames
Codec ID : V_MPEG4/ISO/AVC
Duration : 2 h 16 min
Bit rate : 1 758 kb/s
Width : 1 024 pixels
Height : 432 pixels
Display aspect ratio : 2.40:1
Frame rate mode : Constant
Frame rate : 24.000 FPS
Color space : YUV
Chroma subsampling : 4:2:0
Bit depth : 8 bits
Scan type : Progressive
Bits/(Pixel*Frame) : 0.166
Stream size : 1.64 GiB (80%)
Writing library : x264 core 146 r2538 121396c
Encoding settings : cabac=1 / ref=10 / deblock=1:-2:-1 / analyse=0x3:0x133 / me=umh / subme=11 / psy=1 / psy_rd=1.00:0.08 / mixed_ref=1 / me_range=32 / chroma_me=1 / trellis=2 / 8x8dct=1 / cqm=0 / deadzone=21,11 / fast_pskip=0 / chroma_qp_offset=-3 / threads=18 / lookahead_threads=3 / sliced_threads=0 / nr=0 / decimate=1 / interlaced=0 / bluray_compat=0 / constrained_intra=0 / bframes=11 / b_pyramid=2 / b_adapt=2 / b_bias=0 / direct=1 / weightb=1 / open_gop=0 / weightp=2 / keyint=250 / keyint_min=23 / scenecut=40 / intra_refresh=0 / rc=2pass / mbtree=0 / bitrate=1758 / ratetol=1.0 / qcomp=0.60 / qpmin=0 / qpmax=69 / qpstep=4 / cplxblur=20.0 / qblur=0.5 / ip_ratio=1.40 / pb_ratio=1.30 / aq=2:1.00
Default : Yes
Forced : No
Color range : Limited
Color primaries : BT.709
Transfer characteristics : BT.709
Matrix coefficients : BT.709

Audio
ID : 2
Format : AC-3
Format/Info : Audio Coding 3
Format settings, Endianness : Big
Codec ID : A_AC3
Duration : 2 h 16 min
Bit rate mode : Constant
Bit rate : 384 kb/s
Channel(s) : 6 channels
Channel positions : Front: L C R, Side: L R, LFE
Sampling rate : 48.0 kHz
Frame rate : 31.250 FPS (1536 SPF)
Bit depth : 16 bits
Compression mode : Lossy
Stream size : 375 MiB (18%)
Service kind : Complete Main
Default : Yes
Forced : No

piratbit.pw



Скачать Серебряные коньки через торрент https://i114.fastpic.ru/big/2021/0217/95/f04fa33dd66109cdacf351de892c9295.jpg Скачать фильм Серебряные коньки через торрент бесплантно в хорошем качестве Описание: 1899 год, рождественский Петербург. Яркая праздничная жизнь бурлит на скованных льдом реках и каналах столицы. Накануне нового ... 8.8 10 6
Торрент: Зарегистрирован [2021-02-20 06:45] · скачан: 152 раз
Статус: √ проверено
Размер: 2.05 GB
Как cкачать? Как скачать Серебряные коньки через торрент | UTorrent

% Раздел Тема Автор DL S | L
Наши фильмы (HD, WEB-DL 720p, 1080p) [ 4.71 GB ] Серебряные коньки [2020 История WEB-DL 1080p] bober100 Скачать
20 | 0
Наши новые фильмы 2020 - 2021 [ 2.18 GB ] Серебряные коньки [2020 История WEB-DLRip] bober100 Скачать
8 | 0
Наши новые фильмы 2020 - 2021 [ 1.46 GB ] Серебряные коньки [2020 История WEB-DLRip] bober100 Скачать
9 | 1

28-11-2019 20:33  

Отключить всю рекламу на сайте

    Дорогой пользователь! Огромная просьба, поблагодарите релизера, оцените раздачу и оставьте свои комментарий, если Вы скачали Серебряные коньки через торрент бесплатно! Внесите свою лепту в развитие PiratBit!
    Комментировать посты могут только пользователи прошедшие не сложную регистрацию
    Показать сообщения:    

    Серебряные коньки через торрент
    Скачать бесплатно Серебряные коньки
    Серебряные коньки скачать торрент
    Серебряные коньки смотреть онлайн
    Cкачать фильм Серебряные коньки бесплатно
    Серебряные коньки скачать торрент в хорошем качестве
    Серебряные коньки смотреть онлайн бесплатно в хорошем качестве


    Вы не можете начинать темы
    Вы не можете отвечать на сообщения
    Вы не можете редактировать свои сообщения
    Вы не можете удалять свои сообщения
    Вы не можете голосовать в опросах
    Вы не можете прикреплять файлы к сообщениям
    Вы можете скачивать файлы