1 сезон

3 сезон

iTunes

1

iTunes

DUB Netflix

iTunes

13

1 сезон

RePack

30

Deluxe

pack

Легкие деньги

ВАЖНО

ИГРА 18+

pack

RePack

MK11

RePack

jed

RePack

fifa19

RePack

RDR2

RePack

NEED FOR SPEED™ PAYBACK

4 сезон

9 сезон

Бесстыжие 9 сезон

Все сериалы

все сериалы на PB.wtf

RePack

FAR CRY 5

Anonymous, доброй ночи, мы не успеваем до 1 числа собрать деньги на оплату серверов, помогите нам пожалуйста в это трудное время. В качестве благодарности мы отключим Вам всю рекламу на сайте (укажите свой ник в строку Ваше имя)!

×
  
Magnet ссылка

Рискованные Гонки / Manta Manta (Вольфганг Бюльд) [1991, комедия, мелодрама, BDRip 1080p] DVO - KORSAR piratbit.pw

Рискованные Гонки через торрент piratbit.pw

Размер: 11.7 GB | Добавлен: 3 мес. 25 д. назад | Торрент скачан:10 раз
Скачать  

18-02-2021 08:36 Рискованные Гонки Скачать торрент  

Рискованные Гонки / Manta Manta
Страна: Германия
Жанр: комедия, мелодрама
Год выпуска: 1991
Продолжительность: 01:30:42
Перевод: Профессиональный (двухголосый, закадровый)
Субтитры: немецкие.
Режиссер: Вольфганг Бюльд / Wolfgang Bueld
В ролях: Тиль Швайгер (Bertie), Тина Руланд (Uschi), Штефан Гебельхофф (Gerd), Лена Сабина Берг (Florentine), Михаэль Кесслер (Klausi), Надя Найденов (Angie), Эмер Симсек (Hakan), Беатрис Мановски (Sabine), Мартин Армкнехт (Axel), Карин Джонсон (Freundin Axel), Уве Фелленсик (Disco-Besitzer), Юрген Шорнагель (Herr Ecker)
Описание: Берти - прирожденный гонщик. У него есть верные друзья, на которых всегда можно положиться, и любимая девушка Уши. Но настоящая его страсть - Manta В GTE, машина, не знающая себе равных на дороге, шедевр автомобильного производства. Однако жизнь подчас ведет свою игру, и у Берти начинаются серьезные проблемы. Он заключил пари с гонщиком Акселем и поставил на кон деньги, отложенные на покупку квартиры для них с Уши.
Но это только начало. По пути на стадион Берти затеял гонку с футбольным фанатом на BMW. Это обходится ему слишком дорого - его автомобиль получил повреждение двигателя и не может участвовать в соревновании с Акселем. Друг Берти, автомеханик Герд, сообщает ему, что Уши крутит роман с жиголо Хельмутом, владельцем роскошного "Феррари". Но Уши все еще любит Берти, ведь она ждет от него ребенка, а Хельмут был нужен ей только для того, чтобы заставить Берти ревновать. Тем временем близится день, на который назначены гонки...


Качество: BDRip 1080p
Контейнер: MKV

Видео: AVC, 1920x1040 (1.85:1), 17000 kbps, 24 fps, 0,355 bpp
Аудио №1: русский / AC3 / 5.1 / 48 kHz / 448 kbps / DVO
Аудио №2: немецкий / AC3 / 5.1 / 48 kHz / 640 kbps
Аудио №3: английский / AC3 / 5.1 / 48 kHz / 384 kbps
Навигация по главам: есть
***************************************************************
x264 [info]: frame I:986 Avg QP:17.09 size:375492
x264 [info]: frame P:33943 Avg QP:19.16 size:175678
x264 [info]: frame B:95688 Avg QP:20.90 size: 54640
x264 [info]: consecutive B-frames: 4.3% 4.7% 15.8% 20.0% 21.1% 32.5% 1.1% 0.2% 0.3%
***************************************************************
Формат : Matroska
Версия формата : Version 2
Размер файла : 11,7 Гбайт
Продолжительность : 1 ч. 30 м.
Общий поток : 18,5 Мбит/сек
Название фильма : = Рискованные Гонки / Manta Manta (1991) BDRip 1080p - KORSAR =
Дата кодирования : UTC 2020-12-29 12:44:37
Программа кодирования : mkvmerge v5.8.0 ('No Sleep / Pillow') built on Sep 2 2012 15:37:04
Библиотека кодирования : libebml v1.2.3 + libmatroska v1.3.0
Attachment : Yes

Видео
Идентификатор : 1
Формат : AVC
Формат/Информация : Advanced Video Codec
Профиль формата : High@L4.1
Параметр CABAC формата : Да
Параметр ReFrames формата : 4 кадра
Идентификатор кодека : V_MPEG4/ISO/AVC
Продолжительность : 1 ч. 30 м.
Битрейт : 17,0 Мбит/сек
Ширина : 1920 пикселей
Высота : 1040 пикселей
Соотношение сторон : 1,85:1
Режим частоты кадров : Постоянный
Частота кадров : 24,000 кадра/сек
Цветовое пространство : YUV
Субдискретизация насыщенности : 4:2:0
Битовая глубина : 8 бит
Тип развёртки : Прогрессивная
Бит/(Пиксели*Кадры) : 0.355
Размер потока : 10,5 Гбайт (90%)
Заголовок : Рискованные Гонки / Manta Manta (1991) BDRip 1080p - KORSAR
Библиотека кодирования : x264 core 161 r3027 4121277
Настройки программы : cabac=1 / ref=4 / deblock=1:-3:-3 / analyse=0x3:0x113 / me=umh / subme=11 / psy=1 / psy_rd=1.00:0.00 / mixed_ref=1 / me_range=48 / chroma_me=1 / trellis=2 / 8x8dct=1 / cqm=0 / deadzone=21,11 / fast_pskip=0 / chroma_qp_offset=-2 / threads=12 / lookahead_threads=2 / sliced_threads=0 / nr=0 / decimate=0 / interlaced=0 / bluray_compat=0 / constrained_intra=0 / bframes=8 / b_pyramid=2 / b_adapt=2 / b_bias=0 / direct=3 / weightb=1 / open_gop=0 / weightp=2 / keyint=240 / keyint_min=24 / scenecut=40 / intra_refresh=0 / rc_lookahead=60 / rc=2pass / mbtree=0 / bitrate=17000 / ratetol=1.0 / qcomp=0.66 / qpmin=0 / qpmax=69 / qpstep=4 / cplxblur=20.0 / qblur=0.5 / vbv_maxrate=50000 / vbv_bufsize=62500 / nal_hrd=none / filler=0 / ip_ratio=1.25 / pb_ratio=1.30 / aq=3:0.80
Язык : German
Default : Да
Forced : Нет
Основные цвета : BT.709
Характеристики трансфера : BT.709
Коэффициенты матрицы : BT.709

Аудио #1
Идентификатор : 2
Формат : AC-3
Формат/Информация : Audio Coding 3
Расширение режима : CM (complete main)
Параметр Endianness формата : Big
Идентификатор кодека : A_AC3
Продолжительность : 1 ч. 30 м.
Вид битрейта : Постоянный
Битрейт : 448 Кбит/сек
Каналы : 6 каналов
Расположение каналов : Front: L C R, Side: L R, LFE
Частота : 48,0 КГц
Битовая глубина : 16 бит
Метод сжатия : С потерями
Размер потока : 291 Мбайт (2%)
Заголовок : DVO
Язык : Russian
Default : Да
Forced : Нет

Аудио #2
Идентификатор : 3
Формат : AC-3
Формат/Информация : Audio Coding 3
Расширение режима : CM (complete main)
Параметр Endianness формата : Big
Идентификатор кодека : A_AC3
Продолжительность : 1 ч. 30 м.
Вид битрейта : Постоянный
Битрейт : 640 Кбит/сек
Каналы : 6 каналов
Расположение каналов : Front: L C R, Side: L R, LFE
Частота : 48,0 КГц
Битовая глубина : 16 бит
Метод сжатия : С потерями
Размер потока : 415 Мбайт (3%)
Язык : German
Default : Нет
Forced : Нет

Аудио #3
Идентификатор : 4
Формат : AC-3
Формат/Информация : Audio Coding 3
Расширение режима : CM (complete main)
Параметр Endianness формата : Big
Идентификатор кодека : A_AC3
Продолжительность : 1 ч. 30 м.
Вид битрейта : Постоянный
Битрейт : 384 Кбит/сек
Каналы : 6 каналов
Расположение каналов : Front: L C R, Side: L R, LFE
Частота : 48,0 КГц
Битовая глубина : 16 бит
Метод сжатия : С потерями
Размер потока : 249 Мбайт (2%)
Язык : English
Default : Нет
Forced : Нет

Текст
Идентификатор : 5
Формат : UTF-8
Идентификатор кодека : S_TEXT/UTF8
Идентификатор кодека/Информация : UTF-8 Plain Text
Язык : German
Default : Нет
Forced : Нет

Меню
00:00:00.000 : en:Chapter 01
00:07:08.291 : en:Chapter 02
00:11:56.208 : en:Chapter 03
00:17:37.125 : en:Chapter 04
00:23:22.500 : en:Chapter 05
00:28:50.416 : en:Chapter 06
00:33:49.541 : en:Chapter 07
00:40:09.000 : en:Chapter 08
00:46:10.625 : en:Chapter 09
00:50:17.875 : en:Chapter 10
00:55:17.750 : en:Chapter 11
00:59:49.333 : en:Chapter 12
01:05:41.750 : en:Chapter 13
01:10:38.625 : en:Chapter 14
01:17:07.291 : en:Chapter 15
01:25:42.041 : en:Chapter 16
01:27:25.416 : en:Chapter 17

piratbit.pw



Скачать Рискованные Гонки через торрент https://img11.lostpic.net/2021/01/29/a92d43f35a89588ea373a56c16d03871.jpg Скачать фильм Рискованные Гонки через торрент бесплантно в хорошем качестве Описание: Берти - прирожденный гонщик. У него есть верные друзья, на которых всегда можно положиться, и любимая девушка Уши. Но настоящая ... 10 10 1
Торрент: Зарегистрирован [2021-02-18 08:36] · скачан: 10 раз
Статус: √ проверено
Размер: 11.7 GB
Как cкачать? Как скачать Рискованные Гонки через торрент | UTorrent

28-11-2019 20:33  

Отключить всю рекламу на сайте

    Дорогой пользователь! Огромная просьба, поблагодарите релизера, оцените раздачу и оставьте свои комментарий, если Вы скачали Рискованные Гонки через торрент бесплатно! Внесите свою лепту в развитие PiratBit!
    Комментировать посты могут только пользователи прошедшие не сложную регистрацию
    Показать сообщения:    

    Рискованные Гонки через торрент
    Скачать бесплатно Рискованные Гонки
    Рискованные Гонки скачать торрент
    Рискованные Гонки смотреть онлайн
    Cкачать фильм Рискованные Гонки бесплатно
    Рискованные Гонки скачать торрент в хорошем качестве
    Рискованные Гонки смотреть онлайн бесплатно в хорошем качестве


    Вы не можете начинать темы
    Вы не можете отвечать на сообщения
    Вы не можете редактировать свои сообщения
    Вы не можете удалять свои сообщения
    Вы не можете голосовать в опросах
    Вы не можете прикреплять файлы к сообщениям
    Вы можете скачивать файлы