1 сезон

1 сезон

iTunes

1

КиноПоиск HD

Кинопоиск HD

iTunes

13

1 сезон

RePack

30

Новинка

ВАЖНО

ИГРА 18+

pack

RePack

MK11
pack

Легкие деньги

RePack

jed

RePack

fifa19

RePack

RDR2

RePack

NEED FOR SPEED™ PAYBACK

4 сезон

9 сезон

Бесстыжие 9 сезон

Все сериалы

все сериалы на PB.wtf

RePack

FAR CRY 5
  
Magnet ссылка

Малибу-экспресс / Malibu Express (Энди Сидарис) [1999 г., Триллер, комедия, криминал, детектив, BDRip 720p, Авторский одноголосый Андрей Дольский] от ExKinoRay piratbit.pw

Малибу-экспресс через торрент piratbit.pw

Размер: 5.57 GB | Добавлен: 2 мес. 5 д. назад | Торрент скачан:1 раз
Скачать  

18-02-2021 03:07 Малибу-экспресс Скачать торрент  

Малибу-экспресс / Malibu Express
Год выпуска: 1999
Страна: США
Жанр: Триллер, комедия, криминал, детектив
Продолжительность: 01:41:04
Перевод: Авторский одноголосый Андрей Дольский
Субтитры: Английские (SDH)

Режиссер: Энди Сидарис

Бюджет: $500 000
Премьера в мире: 26 февраля 1987

rating

В ролях: Дэрби Хинтон, Сибил Даннинг, Арт Метрано, Шелли Тейлор Морган, Бретт Бакстер Кларк, Ники Дантин, Лори Саттон, Лоррэйн Майклс, Линда Вайсмейер, Кимберли МакАртур

Описание: Преуспевающий бизнесмен Коди Эбилен стал частным сыщиком, чтобы оказаться в центре детективно-шпионской интриги, в которой также замешаны графиня Лючиана, леди Лиллиан Чемберлен и другие высокопоставленные персоны.

Качество: BDRip 720p
Видео кодек: MPEG4
Аудио кодек: AC3
Видео: 7500 Кбит/с, 1280x720, 23.976 кадра/сек
Аудио#1: Русский (AC3, 2 ch, 192 Кбит/с, 48 КГц)
Аудио#2: Английский (AC3, 2 ch, 192 Кбит/с, 48 КГц)
Релиз от:
x264 [info]: profile High, level 4.1
x264 [info]: frame I:1097 Avg QP:18.15 size:116070
x264 [info]: frame P:29074 Avg QP:20.56 size: 57879
x264 [info]: frame B:115209 Avg QP:22.36 size: 33627
-----
Общее
Уникальный идентификатор : 220577388670238994698071343700212004330 (0xA5F1A8E7F68B8EE698B9F57E520135EA)
Полное имя : D:\Ray\Malibu.Express.1985.BDRip720p.ExKinoRay.mkv
Формат : Matroska
Версия формата : Version 2
Размер файла : 5,57 Гбайт
Продолжительность : 1 ч. 41 м.
Общий поток : 7886 Кбит/сек
Дата кодирования : UTC 2020-06-12 15:04:17
Программа кодирования : mkvmerge v7.8.0 ('River Man') 32bit built on Apr 3 2015 12:11:22
Библиотека кодирования : libebml v1.3.1 + libmatroska v1.4.2

Видео
Идентификатор : 1
Формат : AVC
Формат/Информация : Advanced Video Codec
Профиль формата : High@L4.1
Настройки формата : CABAC / 9 Ref Frames
Параметр CABAC формата : Да
Параметр RefFrames формата : 9 кадров
Идентификатор кодека : V_MPEG4/ISO/AVC
Продолжительность : 1 ч. 41 м.
Битрейт : 7500 Кбит/сек
Ширина : 1280 пикселей
Высота : 720 пикселей
Соотношение сторон : 16:9
Режим частоты кадров : Постоянный
Частота кадров : 23,976 (24000/1001) кадра/сек
Цветовое пространство : YUV
Субдискретизация насыщенности : 4:2:0
Битовая глубина : 8 бит
Тип развёртки : Прогрессивная
Бит/(Пиксели*Кадры) : 0.339
Размер потока : 5,18 Гбайт (93%)
Библиотека кодирования : x264 core 152 r2851 ba24899
Настройки программы : cabac=1 / ref=9 / deblock=1:-3:-2 / analyse=0x3:0x113 / me=umh / subme=10 / psy=1 / psy_rd=1.00:0.10 / mixed_ref=1 / me_range=32 / chroma_me=1 / trellis=2 / 8x8dct=1 / cqm=0 / deadzone=21,11 / fast_pskip=0 / chroma_qp_offset=-3 / threads=6 / lookahead_threads=1 / sliced_threads=0 / nr=0 / decimate=0 / interlaced=0 / bluray_compat=0 / constrained_intra=0 / bframes=16 / b_pyramid=2 / b_adapt=2 / b_bias=0 / direct=3 / weightb=1 / open_gop=0 / weightp=2 / keyint=240 / keyint_min=23 / scenecut=40 / intra_refresh=0 / rc=2pass / mbtree=0 / bitrate=7500 / ratetol=1.0 / qcomp=0.60 / qpmin=0 / qpmax=69 / qpstep=4 / cplxblur=20.0 / qblur=0.5 / ip_ratio=1.40 / pb_ratio=1.30 / aq=3:1.00
Язык : English
Default : Да
Forced : Нет
Цветовой диапазон : Limited
Основные цвета : BT.709
Характеристики трансфера : BT.709
Коэффициенты матрицы : BT.709

Аудио #1
Идентификатор : 2
Формат : AC-3
Формат/Информация : Audio Coding 3
Коммерческое название : Dolby Digital
Идентификатор кодека : A_AC3
Продолжительность : 1 ч. 41 м.
Вид битрейта : Постоянный
Битрейт : 192 Кбит/сек
Каналы : 2 канала
Channel layout : L R
Частота : 48,0 КГц
Частота кадров : 31,250 кадров/сек (1536 SPF)
Битовая глубина : 16 бит
Метод сжатия : С потерями
Размер потока : 139 Мбайт (2%)
Заголовок : Андрей Дольский
Язык : Russian
ServiceKind/String : Complete Main
Default : Да
Forced : Нет

Аудио #2
Идентификатор : 3
Формат : AC-3
Формат/Информация : Audio Coding 3
Коммерческое название : Dolby Digital
Идентификатор кодека : A_AC3
Продолжительность : 1 ч. 41 м.
Вид битрейта : Постоянный
Битрейт : 192 Кбит/сек
Каналы : 2 канала
Channel layout : L R
Частота : 48,0 КГц
Частота кадров : 31,250 кадров/сек (1536 SPF)
Битовая глубина : 16 бит
Метод сжатия : С потерями
Размер потока : 139 Мбайт (2%)
Язык : English
ServiceKind/String : Complete Main
Default : Нет
Forced : Нет

Текст
Идентификатор : 4
Формат : UTF-8
Идентификатор кодека : S_TEXT/UTF8
Идентификатор кодека/Информация : UTF-8 Plain Text
Язык : English
Default : Нет
Forced : Нет

Меню
00:00:00.000 : en:Chapter 1
00:07:53.890 : en:Chapter 2
00:19:15.737 : en:Chapter 3
00:29:29.768 : en:Chapter 4
00:36:18.092 : en:Chapter 5
00:44:17.363 : en:Chapter 6
00:49:19.790 : en:Chapter 7
00:53:21.531 : en:Chapter 8
01:01:33.022 : en:Chapter 9
01:10:12.458 : en:Chapter 10
01:22:56.680 : en:Chapter 11
01:38:02.793 : en:Chapter 12
01:41:03.307 : en:Chapter 13
01:41:03.515 : en:Chapter 14

piratbit.pw



Скачать Малибу-экспресс через торрент https://img16.lostpic.net/2019/10/28/7ea6a8b9630b2d8d657199103d6ee35a.jpg Скачать фильм Малибу-экспресс через торрент бесплантно в хорошем качестве Описание: Преуспевающий бизнесмен Коди Эбилен стал частным сыщиком, чтобы оказаться в центре детективно-шпионской интриги, в которой также ... 5 10 1
Info! Золотая раздача, скачанное не засчитывается.
Торрент: Зарегистрирован [2021-02-18 03:07] · скачан: 1 раз
Статус: √ проверено
Размер: 5.57 GB
Как cкачать? Как скачать Малибу-экспресс через торрент | UTorrent

28-11-2019 20:33  

Отключить всю рекламу на сайте


    Дорогой пользователь! Огромная просьба, поблагодарите релизера, оцените раздачу и оставьте свои комментарий, если Вы скачали Малибу-экспресс через торрент бесплатно! Внесите свою лепту в развитие PiratBit!
    Комментировать посты могут только пользователи прошедшие не сложную регистрацию
    Показать сообщения:    

    Малибу-экспресс через торрент
    Скачать бесплатно Малибу-экспресс
    Малибу-экспресс скачать торрент
    Малибу-экспресс смотреть онлайн
    Cкачать фильм Малибу-экспресс бесплатно
    Малибу-экспресс скачать торрент в хорошем качестве
    Малибу-экспресс смотреть онлайн бесплатно в хорошем качестве


    Вы не можете начинать темы
    Вы не можете отвечать на сообщения
    Вы не можете редактировать свои сообщения
    Вы не можете удалять свои сообщения
    Вы не можете голосовать в опросах
    Вы не можете прикреплять файлы к сообщениям
    Вы можете скачивать файлы