1 сезон

3 сезон

iTunes

1

iTunes

DUB Netflix

iTunes

13

1 сезон

RePack

30

Deluxe

pack

Легкие деньги

ВАЖНО

ИГРА 18+

pack

RePack

MK11

RePack

jed

RePack

fifa19

RePack

RDR2

RePack

NEED FOR SPEED™ PAYBACK

4 сезон

9 сезон

Бесстыжие 9 сезон

Все сериалы

все сериалы на PB.wtf

RePack

FAR CRY 5

Anonymous, доброе утро, мы не успеваем до 1 числа собрать деньги на оплату серверов, помогите нам пожалуйста в это трудное время. В качестве благодарности мы отключим Вам всю рекламу на сайте (укажите свой ник в строку Ваше имя)!

×
  
Magnet ссылка

Возвращение на дикий пляж / L.E.T.H.A.L. Ladies: Return to Savage Beach (Энди Сидарис) [1998 г., Боевик, триллер, эротика, BDRip 720p, Профессиональный (двухголосый)] от ExKinoRay piratbit.pw

Возвращение на дикий пляж через торрент piratbit.pw

Размер: 4.57 GB | Добавлен: 3 мес. 27 д. назад | Торрент скачан:91 раз
Скачать  

17-02-2021 14:56 Возвращение на дикий пляж Скачать торрент  

Возвращение на дикий пляж / L.E.T.H.A.L. Ladies: Return to Savage Beach
Год выпуска: 1998
Страна: США
Жанр: Боевик, триллер, эротика
Продолжительность: 01:37:48
Перевод: Профессиональный (двухголосый)
Субтитры: Английские (SDH)

Режиссер: Энди Сидарис

Премьера в мире: 14 февраля 2006

rating

В ролях: Джули Стрэйн, Родриго Обрегон, Джули К. Смит, Шаэ Маркс, Маркус Багвелл, Кристиан Летелье, Кэрри Уэсткотт, Пол Логан, Джералд Окамура, Ава Каделл, Кэролин Лью, Кевин Истмэн, Маркус Янг, Чак Там, Лелаги Тогисала, Дэвид Хоппер, Бо Паркер, Арт Айлс, Джо Джестер, Абе Рич, Кристиан Дрю Сидарис, Кен Микс, Джеффресон Хендрикс, Алан Блэкни, Элизабет О’Доннелл, Биби Смиллоу

Описание: Группа агентов ФБР, базирующаяся на Гавайях под видом секс-радиостудии, через спутник получает сведения о переброске в Техасе террористами партии оружия и взрывчатки. Секс-диктор Айва зашифрованным секс-текстом сообщает об этом свои техасским коллегам «Тигрице» и «Стражу». «Тигрица» и «Страж» преследуют террористов и уничтожают их. Но вскоре выясняется, что террористы были всего лишь отвлекающим маневром. Пока «Страж» отсутствовал, бандиты побывали в его офисе и скопировали компьютерный диск, на котором были данные о филиппинских сокровищах, конфискованных японцами во время второй мировой войны и спрятанных на острове «Дикий Пляж». В своё время бандит Мартинес, встав на путь исправления и опасаясь, что может погибнуть, передал координаты острова отцу «Стража». Агенты ФБР устремляются на остров параллельно с группой Мартинеса, где и происходит их столкновение. Выясняется, что, во-первых, в группе бандитов находится внедренный агент Интерпола София, во-вторых, под маской Мартинеса оказывается его племянник — бандит, желающий завладеть сокровищами.

Качество: BDRip 720p
Формат: MKV
Видео кодек: MPEG4
Аудио кодек: AC3
Видео: 6300 Кбит/с, 1280x720, 23.976 кадра/сек
Аудио#1: Русский (AC3, 2 ch, 192 Кбит/с, 48 КГц)
Аудио#2: Английский (AC3, 2 ch, 192 Кбит/с, 48 КГц)
Релиз от:
x264 [info]: profile High, level 4.1
x264 [info]: frame I:955 Avg QP:17.70 size:130071
x264 [info]: frame P:34462 Avg QP:20.19 size: 51686
x264 [info]: frame B:105289 Avg QP:21.50 size: 25787
-----
Общее
Уникальный идентификатор : 201305238750190131523035357285236637266 (0x9771FA8DDBFBC1989E8D1F9A0DEC7E52)
Полное имя : D:\MyRips\Savage.Beach.1998.BDRip720p.ExKinoRay.mkv
Формат : Matroska
Версия формата : Version 2
Размер файла : 4,57 Гбайт
Продолжительность : 1 ч. 37 м.
Общий поток : 6685 Кбит/сек
Дата кодирования : UTC 2021-02-17 13:29:04
Программа кодирования : mkvmerge v7.8.0 ('River Man') 32bit built on Apr 3 2015 12:11:22
Библиотека кодирования : libebml v1.3.1 + libmatroska v1.4.2

Видео
Идентификатор : 1
Формат : AVC
Формат/Информация : Advanced Video Codec
Профиль формата : High@L4.1
Настройки формата : CABAC / 9 Ref Frames
Параметр CABAC формата : Да
Параметр RefFrames формата : 9 кадров
Идентификатор кодека : V_MPEG4/ISO/AVC
Продолжительность : 1 ч. 37 м.
Битрейт : 6300 Кбит/сек
Ширина : 1280 пикселей
Высота : 720 пикселей
Соотношение сторон : 16:9
Режим частоты кадров : Постоянный
Частота кадров : 23,976 (24000/1001) кадра/сек
Цветовое пространство : YUV
Субдискретизация насыщенности : 4:2:0
Битовая глубина : 8 бит
Тип развёртки : Прогрессивная
Бит/(Пиксели*Кадры) : 0.285
Размер потока : 4,21 Гбайт (92%)
Библиотека кодирования : x264 core 152 r2851 ba24899
Настройки программы : cabac=1 / ref=9 / deblock=1:-3:-2 / analyse=0x3:0x113 / me=umh / subme=10 / psy=1 / psy_rd=1.00:0.10 / mixed_ref=1 / me_range=32 / chroma_me=1 / trellis=2 / 8x8dct=1 / cqm=0 / deadzone=21,11 / fast_pskip=0 / chroma_qp_offset=-3 / threads=6 / lookahead_threads=1 / sliced_threads=0 / nr=0 / decimate=0 / interlaced=0 / bluray_compat=0 / constrained_intra=0 / bframes=16 / b_pyramid=2 / b_adapt=2 / b_bias=0 / direct=3 / weightb=1 / open_gop=0 / weightp=2 / keyint=240 / keyint_min=23 / scenecut=40 / intra_refresh=0 / rc=2pass / mbtree=0 / bitrate=6300 / ratetol=1.0 / qcomp=0.60 / qpmin=0 / qpmax=69 / qpstep=4 / cplxblur=20.0 / qblur=0.5 / ip_ratio=1.40 / pb_ratio=1.30 / aq=3:1.00
Язык : English
Default : Да
Forced : Нет
Цветовой диапазон : Limited
Основные цвета : BT.709
Характеристики трансфера : BT.709
Коэффициенты матрицы : BT.709

Аудио #1
Идентификатор : 2
Формат : AC-3
Формат/Информация : Audio Coding 3
Коммерческое название : Dolby Digital
Идентификатор кодека : A_AC3
Продолжительность : 1 ч. 37 м.
Вид битрейта : Постоянный
Битрейт : 192 Кбит/сек
Каналы : 2 канала
Channel layout : L R
Частота : 48,0 КГц
Частота кадров : 31,250 кадров/сек (1536 SPF)
Битовая глубина : 16 бит
Метод сжатия : С потерями
Размер потока : 134 Мбайт (3%)
Язык : Russian
ServiceKind/String : Complete Main
Default : Да
Forced : Нет

Аудио #2
Идентификатор : 3
Формат : AC-3
Формат/Информация : Audio Coding 3
Коммерческое название : Dolby Digital
Идентификатор кодека : A_AC3
Продолжительность : 1 ч. 37 м.
Вид битрейта : Постоянный
Битрейт : 192 Кбит/сек
Каналы : 2 канала
Channel layout : L R
Частота : 48,0 КГц
Частота кадров : 31,250 кадров/сек (1536 SPF)
Битовая глубина : 16 бит
Метод сжатия : С потерями
Размер потока : 134 Мбайт (3%)
Язык : English
ServiceKind/String : Complete Main
Default : Нет
Forced : Нет

Текст
Идентификатор : 4
Формат : UTF-8
Идентификатор кодека : S_TEXT/UTF8
Идентификатор кодека/Информация : UTF-8 Plain Text
Язык : English
Default : Нет
Forced : Нет

Меню
00:00:00.000 : en:Main Titles
00:06:36.062 : en:Spies "R" Us
00:16:05.881 : en:Delivery Items
00:23:26.780 : en:Ancient History
00:32:17.477 : en:Basic Instincts
00:38:01.153 : en:Cute Meet
00:47:08.408 : en:Fireside Chat
00:56:24.047 : en:Willows Bends
01:05:01.939 : en:Splish, Splash
01:16:17.656 : en:Naughty Boy
01:29:07.425 : en:Hidden Treasure
01:35:14.917 : en:End Credits

piratbit.pw



Скачать Возвращение на дикий пляж через торрент http://d.radikal.ru/d35/2102/f0/29c24319592d.jpg Скачать фильм Возвращение на дикий пляж через торрент бесплантно в хорошем качестве Описание: Группа агентов ФБР, базирующаяся на Гавайях под видом секс-радиостудии, через спутник получает сведения о переброске в Техасе ... 10 10 1
Торрент: Зарегистрирован [2021-02-17 14:56] · скачан: 91 раз
Статус: √ проверено
Размер: 4.57 GB
Как cкачать? Как скачать Возвращение на дикий пляж через торрент | UTorrent

28-11-2019 20:33  

Отключить всю рекламу на сайте

17-02-2021 15:35 Возвращение на дикий пляж Скачать торрент  

Джули Стрэйн здесь огоньpiratbit.pw



    Дорогой пользователь! Огромная просьба, поблагодарите релизера, оцените раздачу и оставьте свои комментарий, если Вы скачали Возвращение на дикий пляж через торрент бесплатно! Внесите свою лепту в развитие PiratBit!
    Комментировать посты могут только пользователи прошедшие не сложную регистрацию
    Показать сообщения:    

    Возвращение на дикий пляж через торрент
    Скачать бесплатно Возвращение на дикий пляж
    Возвращение на дикий пляж скачать торрент
    Возвращение на дикий пляж смотреть онлайн
    Cкачать фильм Возвращение на дикий пляж бесплатно
    Возвращение на дикий пляж скачать торрент в хорошем качестве
    Возвращение на дикий пляж смотреть онлайн бесплатно в хорошем качестве


    Вы не можете начинать темы
    Вы не можете отвечать на сообщения
    Вы не можете редактировать свои сообщения
    Вы не можете удалять свои сообщения
    Вы не можете голосовать в опросах
    Вы не можете прикреплять файлы к сообщениям
    Вы можете скачивать файлы