2 сезон

iTunes

WEBRip

1

2 сезон

iTunes

1 сезон

1 сезон

RePack

30

Новинка

ВАЖНО

ИГРА 18+

pack

RePack

MK11
pack

Легкие деньги

RePack

jed

RePack

fifa19

RePack

RDR2

RePack

NEED FOR SPEED™ PAYBACK

4 сезон

9 сезон

Бесстыжие 9 сезон

Все сериалы

все сериалы на PB.wtf

RePack

FAR CRY 5

Anonymous, доброй ночи, мы не успеваем собрать деньги на оплату серверов за февраль, помогите нам пожалуйста в это трудное время. В качестве благодарности мы отключим Вам всю рекламу на сайте (укажите свой ник в строку Ваше имя)!

×
  
Magnet ссылка

Не лечи меня (Миша Маралес) [2021, Комедия, WEBRip-AVC] [IVI] от MediaBit piratbit.pw

Не лечи меня через торрент piratbit.pw

Раздают: 5 [ 0 KB/s ]
Размер: 1.45 GB | Добавлен: 19 д. назад | Торрент скачан:216 раз
Скачать  

14-02-2021 08:56 Не лечи меня Скачать торрент  


Не лечи меня
Информация о фильме:
Название: Не лечи меня
Год выхода: 2021
Жанр: Комедия
Режиссер: Миша Маралес

В ролях: Иван Янковский, Лукерья Ильяшенко, Александр Демидов, Дмитрий Нагиев, Елена Север, Даниил Вахрушев, Пётр Фёдоров, Наталья Тетенова, Татьяна Жукова, Андрей Дерюгин и др.

Описание: Хирург-травматолог Илья постоянно попадает в беду из-за своей доброты. То он вынужден жениться на спящей пациентке, то скрывает сына чиновника в больнице — на что только не пойдешь ради спасения больных! Но в водовороте событий Илья не теряет юмора и оптимизма — назло врагам и обстоятельствам.



Страна: Россия
Студия: «Русский Север»
Продолжительность: 01:28:01
Перевод: Не требуется | IVI



Информация о файле:
Кодек: AVC
Формат: MKV
Качество: WEBRip-AVC
Видео: MPEG-4 AVC, 1024x512, 25,000 fps, 2167 kbps
Аудио RU: AC3, 2 ch, 48 kHz, 192 kbps

x264 info: frame I:1069 Avg QP:12.66 size: 86521
x264 info: frame P:29422 Avg QP:16.23 size: 26900
x264 info: frame B:101552 Avg QP:20.13 size: 5376
x264 info: consecutive B-frames: 2.5% 3.5% 9.8% 20.8% 13.1% 27.8% 21.0% 0.6% 0.2% 0.1% 0.1% 0.1% 0.4%
x264 info: mb I I16..4: 8.6% 60.1% 31.3%
General
Unique ID : 267969892556025722821512547925913518555 (0xC9991FC038365E495EC8F812CA6441DB)
Complete name : D:uTorrentРипы_от_wolf1245_MediaBitNe.lechi.menya.2021.IVI.RUS.WEBRip-AVC_wolf1245_MediaBit.mkv
Format : Matroska
Format version : Version 4
File size : 1.45 GiB
Duration : 1 h 28 min
Overall bit rate : 2 359 kb/s
Movie name : Ne.lechi.menya.2021.IVI.RUS.WEBRip-AVC_wolf1245_MediaBit
Encoded date : UTC 2021-02-14 08:44:43
Writing application : mkvmerge v53.0.0 ('Fool's Gold') 64-bit
Writing library : libebml v1.4.1 + libmatroska v1.6.2
Video
ID : 1
Format : AVC
Format/Info : Advanced Video Codec
Format profile : High@L4.1
Format settings : CABAC / 12 Ref Frames
Format settings, CABAC : Yes
Format settings, Reference frames : 12 frames
Codec ID : V_MPEG4/ISO/AVC
Duration : 1 h 28 min
Bit rate : 2 167 kb/s
Width : 1 024 pixels
Height : 512 pixels
Display aspect ratio : 2.000
Frame rate mode : Constant
Frame rate : 25.000 FPS
Color space : YUV
Chroma subsampling : 4:2:0
Bit depth : 8 bits
Scan type : Progressive
Bits/(Pixel*Frame) : 0.165
Stream size : 1.33 GiB (92%)
Title : _wolf1245_MediaBit
Writing library : x264 core 157 r2958 57baac4
Encoding settings : cabac=1 / ref=12 / deblock=1:-3:-3 / analyse=0x3:0x133 / me=umh / subme=11 / psy=1 / psy_rd=1.05:0.05 / mixed_ref=1 / me_range=48 / chroma_me=1 / trellis=2 / 8x8dct=1 / cqm=0 / deadzone=21,11 / fast_pskip=1 / chroma_qp_offset=-3 / threads=10 / lookahead_threads=2 / sliced_threads=0 / nr=0 / decimate=1 / interlaced=0 / bluray_compat=0 / constrained_intra=0 / bframes=12 / b_pyramid=2 / b_adapt=2 / b_bias=0 / direct=3 / weightb=1 / open_gop=0 / weightp=2 / keyint=250 / keyint_min=25 / scenecut=40 / intra_refresh=0 / rc_lookahead=100 / rc=2pass / mbtree=1 / bitrate=2167 / ratetol=1.0 / qcomp=0.60 / qpmin=0 / qpmax=69 / qpstep=4 / cplxblur=20.0 / qblur=0.5 / vbv_maxrate=50000 / vbv_bufsize=62500 / nal_hrd=none / filler=0 / ip_ratio=1.40 / aq=1:0.80
Language : Russian
Default : Yes
Forced : No
Audio
ID : 2
Format : AC-3
Format/Info : Audio Coding 3
Commercial name : Dolby Digital
Codec ID : A_AC3
Duration : 1 h 28 min
Bit rate mode : Constant
Bit rate : 192 kb/s
Channel(s) : 2 channels
Channel layout : L R
Sampling rate : 48.0 kHz
Frame rate : 31.250 FPS (1536 SPF)
Compression mode : Lossy
Stream size : 121 MiB (8%)
Title : RUS
Language : Russian
Service kind : Complete Main
Default : Yes
Forced : No
Релиз от: & &
piratbit.pw



Скачать Не лечи меня через торрент http://lostpix.com/thumbs/2021-02/14/hw0o9tecl3m6zxyx1360rb6n3.png Скачать фильм Не лечи меня через торрент бесплантно в хорошем качестве Описание: Хирург-травматолог Илья постоянно попадает в беду из-за своей доброты. То он вынужден жениться на спящей пациентке, то скрывает ... 10 10 10
Торрент: Зарегистрирован [2021-02-14 08:56] · скачан: 216 раз
Статус: T временная
Размер: 1.45 GB
Как cкачать? Как скачать Не лечи меня через торрент | UTorrent



Последний раз редактировалось: Lithuania (2021-02-14 19:19), всего редактировалось 1 раз

28-11-2019 20:33  

Отключить всю рекламу на сайте

    Дорогой пользователь! Огромная просьба, поблагодарите релизера, оцените раздачу и оставьте свои комментарий, если Вы скачали Не лечи меня через торрент бесплатно! Внесите свою лепту в развитие PiratBit!
    Комментировать посты могут только пользователи прошедшие не сложную регистрацию
    Показать сообщения:    

    Не лечи меня через торрент
    Скачать бесплатно Не лечи меня
    Не лечи меня скачать торрент
    Не лечи меня смотреть онлайн
    Cкачать фильм Не лечи меня бесплатно
    Не лечи меня скачать торрент в хорошем качестве
    Не лечи меня смотреть онлайн бесплатно в хорошем качестве


    Вы не можете начинать темы
    Вы не можете отвечать на сообщения
    Вы не можете редактировать свои сообщения
    Вы не можете удалять свои сообщения
    Вы не можете голосовать в опросах
    Вы не можете прикреплять файлы к сообщениям
    Вы можете скачивать файлы