1 сезон

1 сезон

iTunes

1

КиноПоиск HD

Кинопоиск HD

iTunes

13

1 сезон

RePack

30

Новинка

ВАЖНО

ИГРА 18+

pack

RePack

MK11
pack

Легкие деньги

RePack

jed

RePack

fifa19

RePack

RDR2

RePack

NEED FOR SPEED™ PAYBACK

4 сезон

9 сезон

Бесстыжие 9 сезон

Все сериалы

все сериалы на PB.wtf

RePack

FAR CRY 5
  
Magnet ссылка

Кинг Конг против Годзиллы / Kingu Kongu tai Gojira (Исири Хонда) [1962 г., Фантастика, фэнтези, боевик, приключения, BDRip 720p, Авторский одноголосый Андрей Дольский] от ExKinoRay piratbit.pw

Кинг Конг против Годзиллы через торрент piratbit.pw

Раздают: 1 [ 0 KB/s ]
Размер: 4 GB | Добавлен: 2 мес. 12 д. назад | Торрент скачан:13 раз
Скачать  

11-02-2021 07:26 Кинг Конг против Годзиллы Скачать торрент  

Кинг Конг против Годзиллы / Kingu Kongu tai Gojira
Год выпуска: 1962
Страна: Япония, США
Жанр: Фантастика, фэнтези, боевик, приключения
Продолжительность: 01:30:48
Перевод: Авторский одноголосый Андрей Дольский
Субтитры: Английские (SDH)

Режиссер: Исири Хонда

Бюджет: $200 000
Премьера в мире: 11 августа 1962

rating

В ролях: Тадао Такасима, Кэндзи Сахара, Ичиро Аришима, Дзюн Тадзаки, Акихико Хирата, Миэ Хама, Акико Вакабаяси, Акеми Негиси, Сомэсё Мацумото

Описание: Недалеко от Японии, в водах океана, просыпается Годзилла, которого все считали мёртвым. Он движется в сторону самого большого острова Японии. Группа телевизионщиков отправляется на остров, где, согласно легендам, живёт Бог, и находит там гигантскую гориллу по имени Конг. Телевизионщики перевозят гориллу в Японию. Кинг Конг сбегает и начинает вести сражение против Годзиллы.

Качество: BDRip 720p
Формат: MKV
Видео кодек: MPEG4
Аудио кодек: AC3
Видео: 6000 Кбит/с, 1280x544, 23.976 кадра/сек
Аудио#1: Русский (AC3, 2 ch, 112 Кбит/с, 48 КГц)
Аудио#2: Английский (AC3, 2 ch, 192 Кбит/с, 48 КГц)
Релиз от:
x264 [info]: profile High, level 4.1
x264 [info]: frame I:783 Avg QP:18.40 size:107706
x264 [info]: frame P:27458 Avg QP:20.75 size: 50531
x264 [info]: frame B:102388 Avg QP:22.49 size: 25544
-----
Общее
Уникальный идентификатор : 254398799621572217999524678811984016037 (0xBF636D35B4AF0D659E942CA1B25732A5)
Полное имя : D:\MyRips\KingKong.Godzilla.1982.BDRip720p.ExKinoRay.mkv
Формат : Matroska
Версия формата : Version 2
Размер файла : 4,00 Гбайт
Продолжительность : 1 ч. 30 м.
Общий поток : 6307 Кбит/сек
Дата кодирования : UTC 2021-02-11 04:39:05
Программа кодирования : mkvmerge v7.8.0 ('River Man') 32bit built on Apr 3 2015 12:11:22
Библиотека кодирования : libebml v1.3.1 + libmatroska v1.4.2

Видео
Идентификатор : 1
Формат : AVC
Формат/Информация : Advanced Video Codec
Профиль формата : High@L4.1
Настройки формата : CABAC / 12 Ref Frames
Параметр CABAC формата : Да
Параметр RefFrames формата : 12 кадров
Идентификатор кодека : V_MPEG4/ISO/AVC
Продолжительность : 1 ч. 30 м.
Битрейт : 6000 Кбит/сек
Ширина : 1280 пикселей
Высота : 544 пикселя
Соотношение сторон : 2,35:1
Режим частоты кадров : Постоянный
Частота кадров : 23,976 (24000/1001) кадра/сек
Цветовое пространство : YUV
Субдискретизация насыщенности : 4:2:0
Битовая глубина : 8 бит
Тип развёртки : Прогрессивная
Бит/(Пиксели*Кадры) : 0.359
Размер потока : 3,73 Гбайт (93%)
Библиотека кодирования : x264 core 152 r2851 ba24899
Настройки программы : cabac=1 / ref=12 / deblock=1:-3:-2 / analyse=0x3:0x113 / me=umh / subme=10 / psy=1 / psy_rd=1.00:0.10 / mixed_ref=1 / me_range=32 / chroma_me=1 / trellis=2 / 8x8dct=1 / cqm=0 / deadzone=21,11 / fast_pskip=0 / chroma_qp_offset=-3 / threads=6 / lookahead_threads=1 / sliced_threads=0 / nr=0 / decimate=0 / interlaced=0 / bluray_compat=0 / constrained_intra=0 / bframes=14 / b_pyramid=2 / b_adapt=2 / b_bias=0 / direct=3 / weightb=1 / open_gop=0 / weightp=2 / keyint=240 / keyint_min=23 / scenecut=40 / intra_refresh=0 / rc=2pass / mbtree=0 / bitrate=6000 / ratetol=1.0 / qcomp=0.60 / qpmin=0 / qpmax=69 / qpstep=4 / cplxblur=20.0 / qblur=0.5 / ip_ratio=1.40 / pb_ratio=1.30 / aq=3:1.00
Язык : English
Default : Да
Forced : Нет
Цветовой диапазон : Limited
Основные цвета : BT.709
Характеристики трансфера : BT.709
Коэффициенты матрицы : BT.709

Аудио #1
Идентификатор : 2
Формат : AC-3
Формат/Информация : Audio Coding 3
Коммерческое название : Dolby Digital
Идентификатор кодека : A_AC3
Продолжительность : 1 ч. 30 м.
Вид битрейта : Постоянный
Битрейт : 112 Кбит/сек
Каналы : 2 канала
Channel layout : L R
Частота : 48,0 КГц
Частота кадров : 31,250 кадров/сек (1536 SPF)
Битовая глубина : 16 бит
Метод сжатия : С потерями
Размер потока : 72,7 Мбайт (2%)
Заголовок : Андрей Дольский
Язык : Russian
ServiceKind/String : Complete Main
Default : Да
Forced : Нет

Аудио #2
Идентификатор : 3
Формат : AC-3
Формат/Информация : Audio Coding 3
Коммерческое название : Dolby Digital
Идентификатор кодека : A_AC3
Продолжительность : 1 ч. 30 м.
Вид битрейта : Постоянный
Битрейт : 192 Кбит/сек
Каналы : 2 канала
Channel layout : L R
Частота : 48,0 КГц
Частота кадров : 31,250 кадров/сек (1536 SPF)
Битовая глубина : 16 бит
Метод сжатия : С потерями
Размер потока : 125 Мбайт (3%)
Язык : English
ServiceKind/String : Complete Main
Default : Нет
Forced : Нет

Текст
Идентификатор : 4
Формат : UTF-8
Идентификатор кодека : S_TEXT/UTF8
Идентификатор кодека/Информация : UTF-8 Plain Text
Заголовок : SDH
Язык : English
Default : Нет
Forced : Нет

Меню
00:00:00.000 : en:Chapter 01
00:01:07.691 : en:Chapter 02
00:03:32.837 : en:Chapter 03
00:08:03.357 : en:Chapter 04
00:12:55.399 : en:Chapter 05
00:16:06.757 : en:Chapter 06
00:24:22.793 : en:Chapter 07
00:30:11.642 : en:Chapter 08
00:36:22.054 : en:Chapter 09
00:40:12.618 : en:Chapter 10
00:47:09.201 : en:Chapter 11
00:53:51.185 : en:Chapter 12
00:57:15.223 : en:Chapter 13
01:05:53.491 : en:Chapter 14
01:10:45.783 : en:Chapter 15
01:15:35.572 : en:Chapter 16
01:19:03.655 : en:Chapter 17
01:25:01.554 : en:Chapter 18

piratbit.pw



Скачать Кинг Конг против Годзиллы через торрент https://img15.lostpic.net/2020/02/01/50684a44f26b9dd6f639138b6a904195.jpg Скачать фильм Кинг Конг против Годзиллы через торрент бесплантно в хорошем качестве Описание: Недалеко от Японии, в водах океана, просыпается Годзилла, которого все считали мёртвым. Он движется в сторону самого большого ... 10 10 2
Info! Золотая раздача, скачанное не засчитывается.
Торрент: Зарегистрирован [2021-02-11 07:26] · скачан: 13 раз
Статус: √ проверено
Размер: 4 GB
Как cкачать? Как скачать Кинг Конг против Годзиллы через торрент | UTorrent

28-11-2019 20:33  

Отключить всю рекламу на сайте

    Дорогой пользователь! Огромная просьба, поблагодарите релизера, оцените раздачу и оставьте свои комментарий, если Вы скачали Кинг Конг против Годзиллы через торрент бесплатно! Внесите свою лепту в развитие PiratBit!
    Комментировать посты могут только пользователи прошедшие не сложную регистрацию
    Показать сообщения:    

    Кинг Конг против Годзиллы через торрент
    Скачать бесплатно Кинг Конг против Годзиллы
    Кинг Конг против Годзиллы скачать торрент
    Кинг Конг против Годзиллы смотреть онлайн
    Cкачать фильм Кинг Конг против Годзиллы бесплатно
    Кинг Конг против Годзиллы скачать торрент в хорошем качестве
    Кинг Конг против Годзиллы смотреть онлайн бесплатно в хорошем качестве


    Вы не можете начинать темы
    Вы не можете отвечать на сообщения
    Вы не можете редактировать свои сообщения
    Вы не можете удалять свои сообщения
    Вы не можете голосовать в опросах
    Вы не можете прикреплять файлы к сообщениям
    Вы можете скачивать файлы