1 сезон

3 сезон

iTunes

1

iTunes

DUB Netflix

iTunes

13

1 сезон

RePack

30

Deluxe

pack

Легкие деньги

ВАЖНО

ИГРА 18+

pack

RePack

MK11

RePack

jed

RePack

fifa19

RePack

RDR2

RePack

NEED FOR SPEED™ PAYBACK

4 сезон

9 сезон

Бесстыжие 9 сезон

Все сериалы

все сериалы на PB.wtf

RePack

FAR CRY 5

Anonymous, доброе утро, мы не успеваем до 1 числа собрать деньги на оплату серверов, помогите нам пожалуйста в это трудное время. В качестве благодарности мы отключим Вам всю рекламу на сайте (укажите свой ник в строку Ваше имя)!

×
  
Magnet ссылка

Белый тигр / The White Tiger (Рамин Бахрани) [2021, Драма, криминал, WEB-DL 1080p] MVO [HDRezka Studio] +VO [В.Данилов] piratbit.pw

Белый тигр через торрент piratbit.pw

Раздают: 3 [ 0 KB/s ]
Размер: 5.35 GB | Добавлен: 4 мес. 11 д. назад | Торрент скачан:126 раз
Скачать  

05-02-2021 18:40 Белый тигр Скачать торрент  

Белый тигр | The White Tiger
Год выпуска: 2021
Страна: Индия, США
Студия: Lava Media, NetFlix, Noruz Productions
Жанр: Драма, криминал
Продолжительность: 02:07:00
Перевод:
Профессиональный (многоголосый) | HDRezka Studio
Любительский одноголосый | Владислав Данилов
Субтитры: Русские (Forced, Full), английские (Forced, SDH)

Режиссер: Рамин Бахрани

rating

В ролях: Адарш Гурав, Раджкумар Рао, Приянка Чопра Джонас, Махеш Манджрекар, Перри Капернарос, Сваруп Самрат, Налниш Нил, Виджай Маурья, Камлеш Гилл, Ведант Синха, Аарон Ван, Трупти Кхамкар, Санкет Шанвар, Абхишек Кхандекар, Б. Шантану, Локеш Миттал

Описание: 2010 год. Через неделю китайский премьер нанесёт официальный визит в Индию, чтобы познакомится с местными предпринимателями, а пока Балрам пишет ему письмо о своей жизни. Парень рос в нищете без малейшей надежды на лучшее будущее и единственное, чего он всегда желал — устроиться слугой к состоятельному человеку. Когда из Америки вернулся сын местного богатея, Балрам сразу понял, что нашёл своего хозяина. Эта работа и близкое знакомство с сильными мира сего начинают менять мировоззрение наивного бедняка.

Качество: WEB-DL 1080p
Формат: MKV

Видео: AVC/H.264, 1920x1080, ~3981 Кbps, 24 fps
Аудио 1: AC3, 6 ch, 448 Kbps - Русский (MVO HDrezka Studio)-censored
Аудио 2: AC3, 6 ch, 448 Kbps - Русский (MVO HDrezka Studio)-uncensored
Аудио 3: AC3, 6 ch, 384 Kbps - Русский (В. Данилов)
Аудио 4: E-AC3, 6 ch, 768 Kbps - Английский
скриншот  скриншот  скриншот  скриншот  

Общее
Уникальный идентификатор : 19025261006754375971429828479012041187 (0xE5021C9EAEC5113C8696E4D5487F1E3)
Полное имя : The White Tiger.2021.WEB-DL.1080p.W.mkv
Формат : Matroska
Версия формата : Version 4
Размер файла : 5,35 Гбайт
Продолжительность : 2 ч. 7 м.
Режим общего битрейта : Переменный
Общий поток : 6 031 Кбит/сек
Название фильма : The White Tiger.2021.WEB-DL.1080p.W
Дата кодирования : UTC 2021-02-05 18:08:03
Программа кодирования : mkvmerge v23.0.0 ('The Bride Said No') 64-bit
Библиотека кодирования : libebml v1.3.6 + libmatroska v1.4.9

Видео
Идентификатор : 1
Формат : AVC
Формат/Информация : Advanced Video Codec
Профиль формата : High@L4
Настройки формата : CABAC / 4 Ref Frames
Параметр CABAC формата : Да
Параметр RefFrames формата : 4 кадра
Идентификатор кодека : V_MPEG4/ISO/AVC
Продолжительность : 2 ч. 7 м.
Вид битрейта : Переменный
Битрейт : 3 981 Кбит/сек
Максимальный битрейт : 20,0 Мбит/сек
Ширина : 1 920 пикселей
Высота : 1 080 пикселей
Соотношение сторон : 16:9
Режим частоты кадров : Постоянный
Частота кадров : 24,000 кадра/сек
Цветовое пространство : YUV
Субдискретизация насыщенности : 4:2:0
Битовая глубина : 8 бит
Тип развёртки : Прогрессивная
Бит/(Пиксели*Кадры) : 0.080
Размер потока : 3,53 Гбайт (66%)
Библиотека кодирования : x264 core 148 r2722 1b0121b
Настройки программы : cabac=1 / ref=4 / deblock=1:0:0 / analyse=0x3:0x111 / me=umh / subme=10 / psy=1 / psy_rd=1.00:0.00 / mixed_ref=1 / me_range=120 / chroma_me=1 / trellis=2 / 8x8dct=1 / cqm=0 / deadzone=21,11 / fast_pskip=1 / chroma_qp_offset=-2 / threads=8 / lookahead_threads=2 / sliced_threads=0 / nr=0 / decimate=1 / interlaced=0 / bluray_compat=0 / stitchable=1 / constrained_intra=0 / bframes=16 / b_pyramid=2 / b_adapt=2 / b_bias=0 / direct=3 / weightb=1 / open_gop=0 / weightp=2 / keyint=240 / keyint_min=121 / scenecut=0 / intra_refresh=0 / rc_lookahead=240 / rc=crf / mbtree=1 / crf=16.0 / qcomp=0.50 / qpmin=6 / qpmax=51 / qpstep=4 / vbv_maxrate=20000 / vbv_bufsize=25000 / crf_max=0.0 / nal_hrd=vbr / filler=0 / ip_ratio=1.40 / aq=1:0.80
Язык : English
Default : Да
Forced : Нет

Аудио #1
Идентификатор : 2
Формат : AC-3
Формат/Информация : Audio Coding 3
Коммерческое название : Dolby Digital
Идентификатор кодека : A_AC3
Продолжительность : 2 ч. 7 м.
Вид битрейта : Постоянный
Битрейт : 448 Кбит/сек
Каналы : 6 каналов
Channel layout : L R C LFE Ls Rs
Частота : 48,0 КГц
Частота кадров : 31,250 кадров/сек (1536 SPF)
Метод сжатия : С потерями
Размер потока : 407 Мбайт (7%)
Заголовок : MVO (HDRezka Studio ) censored
Язык : Russian
Service kind : Complete Main
Default : Да
Forced : Нет

Аудио #2
Идентификатор : 3
Формат : AC-3
Формат/Информация : Audio Coding 3
Коммерческое название : Dolby Digital
Идентификатор кодека : A_AC3
Продолжительность : 2 ч. 7 м.
Вид битрейта : Постоянный
Битрейт : 448 Кбит/сек
Каналы : 6 каналов
Channel layout : L R C LFE Ls Rs
Частота : 48,0 КГц
Частота кадров : 31,250 кадров/сек (1536 SPF)
Метод сжатия : С потерями
Размер потока : 407 Мбайт (7%)
Заголовок : MVO (HDRezka Studio ) uncensored
Язык : Russian
Service kind : Complete Main
Default : Нет
Forced : Нет

Аудио #3
Идентификатор : 4
Формат : AC-3
Формат/Информация : Audio Coding 3
Коммерческое название : Dolby Digital
Идентификатор кодека : A_AC3
Продолжительность : 2 ч. 7 м.
Вид битрейта : Постоянный
Битрейт : 384 Кбит/сек
Каналы : 6 каналов
Channel layout : L R C LFE Ls Rs
Частота : 48,0 КГц
Частота кадров : 31,250 кадров/сек (1536 SPF)
Метод сжатия : С потерями
Размер потока : 349 Мбайт (6%)
Заголовок : В.Данилов
Язык : Russian
Service kind : Complete Main
Default : Нет
Forced : Нет

Аудио #4
Идентификатор : 5
Формат : E-AC-3 JOC
Формат/Информация : Enhanced AC-3 with Joint Object Coding
Коммерческое название : Dolby Digital Plus with Dolby Atmos
Идентификатор кодека : A_EAC3
Продолжительность : 2 ч. 7 м.
Вид битрейта : Постоянный
Битрейт : 768 Кбит/сек
Каналы : 6 каналов
Channel layout : L R C LFE Ls Rs
Частота : 48,0 КГц
Частота кадров : 31,250 кадров/сек (1536 SPF)
Метод сжатия : С потерями
Размер потока : 698 Мбайт (13%)
Язык : English
Service kind : Complete Main
Default : Нет
Forced : Нет
Complexity index : 16
Number of dynamic objects : 15
Bed channel count : 1 канал
Bed channel configuration : LFE

Текст #1
Идентификатор : 6
Формат : UTF-8
Идентификатор кодека : S_TEXT/UTF8
Идентификатор кодека/Информация : UTF-8 Plain Text
Продолжительность : 2 ч. 0 м.
Битрейт : 3 бит/сек
Count of elements : 69
Размер потока : 3,36 Кбайт (0%)
Заголовок : Forced
Язык : Russian
Default : Да
Forced : Нет

Текст #2
Идентификатор : 7
Формат : UTF-8
Идентификатор кодека : S_TEXT/UTF8
Идентификатор кодека/Информация : UTF-8 Plain Text
Продолжительность : 2 ч. 5 м.
Битрейт : 90 бит/сек
Count of elements : 1466
Размер потока : 83,3 Кбайт (0%)
Язык : Russian
Default : Нет
Forced : Нет

Текст #3
Идентификатор : 8
Формат : UTF-8
Идентификатор кодека : S_TEXT/UTF8
Идентификатор кодека/Информация : UTF-8 Plain Text
Продолжительность : 1 ч. 52 м.
Битрейт : 17 бит/сек
Count of elements : 460
Размер потока : 14,8 Кбайт (0%)
Заголовок : Forced
Язык : English
Default : Нет
Forced : Нет

Текст #4
Идентификатор : 9
Формат : UTF-8
Идентификатор кодека : S_TEXT/UTF8
Идентификатор кодека/Информация : UTF-8 Plain Text
Продолжительность : 2 ч. 4 м.
Битрейт : 75 бит/сек
Count of elements : 1832
Размер потока : 68,5 Кбайт (0%)
Заголовок : SDH
Язык : English
Default : Нет
Forced : Нет

piratbit.pw



Скачать Белый тигр через торрент http://a.radikal.ru/a38/2102/a7/aa77a5863bad.jpg Скачать фильм Белый тигр через торрент бесплантно в хорошем качестве Описание: 2010 год. Через неделю китайский премьер нанесёт официальный визит в Индию, чтобы познакомится с местными предпринимателями, а ... 10 10 5
Торрент: Зарегистрирован [2021-02-05 18:40] · скачан: 126 раз
Статус: √ проверено
Размер: 5.35 GB
Как cкачать? Как скачать Белый тигр через торрент | UTorrent

28-11-2019 20:33  

Отключить всю рекламу на сайте

07-02-2021 05:42 Белый тигр Скачать торрент  

как киношка ? нетфликс везде !piratbit.pw



08-02-2021 17:53 Белый тигр Скачать торрент  

Посмотрел . Норм фильм piratbit.pw



    Дорогой пользователь! Огромная просьба, поблагодарите релизера, оцените раздачу и оставьте свои комментарий, если Вы скачали Белый тигр через торрент бесплатно! Внесите свою лепту в развитие PiratBit!
    Комментировать посты могут только пользователи прошедшие не сложную регистрацию
    Показать сообщения:    

    Белый тигр через торрент
    Скачать бесплатно Белый тигр
    Белый тигр скачать торрент
    Белый тигр смотреть онлайн
    Cкачать фильм Белый тигр бесплатно
    Белый тигр скачать торрент в хорошем качестве
    Белый тигр смотреть онлайн бесплатно в хорошем качестве


    Вы не можете начинать темы
    Вы не можете отвечать на сообщения
    Вы не можете редактировать свои сообщения
    Вы не можете удалять свои сообщения
    Вы не можете голосовать в опросах
    Вы не можете прикреплять файлы к сообщениям
    Вы можете скачивать файлы