1 сезон

3 сезон

iTunes

1

iTunes

DUB Netflix

iTunes

13

1 сезон

RePack

30

Deluxe

pack

Легкие деньги

ВАЖНО

ИГРА 18+

pack

RePack

MK11

RePack

jed

RePack

fifa19

RePack

RDR2

RePack

NEED FOR SPEED™ PAYBACK

4 сезон

9 сезон

Бесстыжие 9 сезон

Все сериалы

все сериалы на PB.wtf

RePack

FAR CRY 5

Anonymous, добрый вечер, мы не успеваем до 1 числа собрать деньги на оплату серверов, помогите нам пожалуйста в это трудное время. В качестве благодарности мы отключим Вам всю рекламу на сайте (укажите свой ник в строку Ваше имя)!

×
  
Magnet ссылка

Поворот не туда 2: Тупик / Wrong Turn 2: Dead End (Джо Линч) [2007 г., ужасы, триллер, BDRip-AVC, Дубляж] piratbit.pw

Поворот не туда 2: Тупик через торрент piratbit.pw

Размер: 2.63 GB | Добавлен: 4 мес. 15 д. назад | Торрент скачан:4 раза
Скачать  

01-02-2021 18:54 Поворот не туда 2: Тупик Скачать торрент  

Поворот не туда 2: Тупик /
Wrong Turn 2: Dead End
Год выпуска: 2007
Страна: США
Жанр: ужасы
Продолжительность: 01:36:57
Перевод: Дубляж
Субтитры: отсутствуют

Режиссер: Джо Линч

Премьера в мире: 25 августа 2007

rating

В ролях: Эрика Лирсен, Генри Роллинз, Тексас Бэттл, Алекса Палладино, Даниэлла Алонсо, Стив Браун, Мэттью Карри Холмс, Кристал Лоу, Кимберли Колдуэлл, Уэйн Робсон

Описание: В печально известном по событиям первого фильма лесу, местная телекомпания снимает реалити-шоу в духе «Последнего героя». Участникам проекта предстоит вести образ жизни первобытных племен без современных средств связи… на радость обитающим неподалеку каннибалам.

Качество: BDRip-AVC
Формат: MKV
Видео кодек: H.264
Аудио кодек: AC3
Видео: AVC/H.264, 1024x576, ~3500 kbps
Аудио#1: AC3, 6 ch, 384 kbps - Дубляж
Релиз от: winchester00100010
x264 [info]: profile Progressive High, level 4.1, 4:2:0, 8-bit
x264 [info]: frame I:1100 Avg QP:18.79 size: 82125 PSNR Mean Y:45.06 U:48.92 V:49.53 Avg:45.92 Global:44.96
x264 [info]: frame P:35827 Avg QP:21.30 size: 30933 PSNR Mean Y:43.23 U:48.91 V:49.69 Avg:44.29 Global:43.00
x264 [info]: frame B:102548 Avg QP:23.08 size: 13116 PSNR Mean Y:41.91 U:48.29 V:49.21 Avg:43.05 Global:41.62

Общее
Уникальный идентификатор : 242416546516217022668004286308408014441 (0xB65FBA853491EC7E8562D15775BEB669)
Полное имя : D:\Мои раздачи и рипы\Поворот не туда Коллекция\Wrong.Turn.2.Dead.End.2007.BDRip-AVC.mkv
Формат : Matroska
Версия формата : Version 2
Размер файла : 2,63 Гбайт
Продолжительность : 1 ч. 36 м.
Общий поток : 3 884 Кбит/сек
Дата кодирования : UTC 2021-02-01 15:25:44
Программа кодирования : mkvmerge v5.8.0 ('No Sleep / Pillow') built on Sep 2 2012 15:37:04
Библиотека кодирования : libebml v1.2.3 + libmatroska v1.3.0

Видео
Идентификатор : 1
Формат : AVC
Формат/Информация : Advanced Video Codec
Профиль формата : High@L4.1
Настройки формата : CABAC / 12 Ref Frames
Параметр CABAC формата : Да
Параметр RefFrames формата : 12 кадров
Идентификатор кодека : V_MPEG4/ISO/AVC
Продолжительность : 1 ч. 36 м.
Битрейт : 3 500 Кбит/сек
Ширина : 1 024 пикселя
Высота : 576 пикселей
Соотношение сторон : 16:9
Режим частоты кадров : Постоянный
Частота кадров : 23,976 (24000/1001) кадра/сек
Цветовое пространство : YUV
Субдискретизация насыщенности : 4:2:0
Битовая глубина : 8 бит
Тип развёртки : Прогрессивная
Бит/(Пиксели*Кадры) : 0.247
Размер потока : 2,32 Гбайт (88%)
Библиотека кодирования : x264 core 157 r2969 d4099dd
Настройки программы : cabac=1 / ref=12 / deblock=1:-3:-3 / analyse=0x3:0x133 / me=umh / subme=9 / psy=1 / psy_rd=1.00:0.15 / mixed_ref=1 / me_range=32 / chroma_me=1 / trellis=2 / 8x8dct=1 / cqm=0 / deadzone=21,11 / fast_pskip=0 / chroma_qp_offset=-3 / threads=12 / lookahead_threads=2 / sliced_threads=0 / nr=0 / decimate=0 / interlaced=0 / bluray_compat=0 / constrained_intra=0 / bframes=6 / b_pyramid=2 / b_adapt=2 / b_bias=0 / direct=3 / weightb=1 / open_gop=0 / weightp=2 / keyint=240 / keyint_min=23 / scenecut=40 / intra_refresh=0 / rc_lookahead=40 / rc=2pass / mbtree=0 / bitrate=3500 / ratetol=1.0 / qcomp=0.60 / qpmin=0 / qpmax=69 / qpstep=4 / cplxblur=20.0 / qblur=0.5 / vbv_maxrate=50000 / vbv_bufsize=62500 / nal_hrd=none / filler=0 / ip_ratio=1.40 / pb_ratio=1.30 / aq=1:0.80
Язык : English
Default : Да
Forced : Нет
Duration_Source : General_Duration

Аудио
Идентификатор : 2
Формат : AC-3
Формат/Информация : Audio Coding 3
Коммерческое название : Dolby Digital
Идентификатор кодека : A_AC3
Продолжительность : 1 ч. 36 м.
Вид битрейта : Постоянный
Битрейт : 384 Кбит/сек
Каналы : 6 каналов
Channel layout : L R C LFE Ls Rs
Частота : 48,0 КГц
Частота кадров : 31,250 кадров/сек (1536 SPF)
Метод сжатия : С потерями
Размер потока : 266 Мбайт (10%)
Заголовок : Дубляж
Язык : Russian
Service kind : Complete Main
Default : Да
Forced : Нет
Duration_Source : General_Duration

piratbit.pw



Скачать Поворот не туда 2: Тупик через торрент https://a.radikal.ru/a05/1910/6b/69e7c9fe1905.jpg Скачать фильм Поворот не туда 2: Тупик через торрент бесплантно в хорошем качестве Описание: В печально известном по событиям первого фильма лесу, местная телекомпания снимает реалити-шоу в духе «Последнего героя». ... 5 10 1
Торрент: Зарегистрирован [2021-02-01 18:54] · скачан: 4 раз
Статус: √ проверено
Размер: 2.63 GB
Как cкачать? Как скачать Поворот не туда 2: Тупик через торрент | UTorrent

% Раздел Тема Автор DL S | L
Фильмы [HD 720p, 1080p] (Хороший звук DUB, MVO) [ 7.75 GB ] Поворот не туда 2: Тупик / Wrong Turn 2: Dead End [2007 BDRip 720p ] winchester00100010 Скачать
1 | 0
Фильмы [HD 720p, 1080p] (Хороший звук DUB, MVO) [ 8.21 GB ] Поворот не туда 2: Тупик / Wrong Turn 2: Dead End [2007 BDRip ] DUB markfiter Скачать
1 | 0
Фильмы 2006-2008 [ 1.72 GB ] Поворот не туда 2: Тупик / Wrong Turn 2: Dead End [Unrated] [2007 HDRip] DUB BaRSSS Скачать
1 | 0
Фильмы (DVD фильмы) [ 4.04 GB ] Поворот не туда 2: Тупик / Wrong Turn 2: Dead End [2007 DVD5] BuHTuK Скачать
1 | 0

28-11-2019 20:33  

Отключить всю рекламу на сайте

    Дорогой пользователь! Огромная просьба, поблагодарите релизера, оцените раздачу и оставьте свои комментарий, если Вы скачали Поворот не туда 2: Тупик через торрент бесплатно! Внесите свою лепту в развитие PiratBit!
    Комментировать посты могут только пользователи прошедшие не сложную регистрацию
    Показать сообщения:    

    Поворот не туда 2: Тупик через торрент
    Скачать бесплатно Поворот не туда 2: Тупик
    Поворот не туда 2: Тупик скачать торрент
    Поворот не туда 2: Тупик смотреть онлайн
    Cкачать фильм Поворот не туда 2: Тупик бесплатно
    Поворот не туда 2: Тупик скачать торрент в хорошем качестве
    Поворот не туда 2: Тупик смотреть онлайн бесплатно в хорошем качестве


    Вы не можете начинать темы
    Вы не можете отвечать на сообщения
    Вы не можете редактировать свои сообщения
    Вы не можете удалять свои сообщения
    Вы не можете голосовать в опросах
    Вы не можете прикреплять файлы к сообщениям
    Вы можете скачивать файлы