2 сезон

iTunes

WEBRip

1

2 сезон

iTunes

1 сезон

1 сезон

RePack

30

Ultimate

ВАЖНО

ИГРА 18+

pack

RePack

MK11
pack

Легкие деньги

RePack

jed

RePack

fifa19

RePack

RDR2

RePack

NEED FOR SPEED™ PAYBACK

4 сезон

9 сезон

Бесстыжие 9 сезон

Все сериалы

все сериалы на PB.wtf

RePack

FAR CRY 5

Anonymous, доброй ночи, мы не успеваем собрать деньги на оплату серверов за февраль, помогите нам пожалуйста в это трудное время. В качестве благодарности мы отключим Вам всю рекламу на сайте (укажите свой ник в строку Ваше имя)!

×
  
Magnet ссылка

Цой (Алексей Учитель) [2020, Драма, WEB-DLRip-AVC] [RUS] [iTunes] от MediaBit piratbit.pw

Цой через торрент piratbit.pw

Раздают: 5 [ 0 KB/s ]
Размер: 1.45 GB | Добавлен: 1 мес. 6 д. назад | Торрент скачан:190 раз
Скачать  

30-01-2021 20:42 Цой Скачать торрент  


Цой
Информация о фильме:
Название: Цой
Год выхода: 2020
Жанр: Драма
Режиссер: Алексей Учитель

В ролях: Евгений Цыганов, Марьяна Спивак, Паулина Андреева, Илья Дель, Игорь Верник, Надежда Калеганова, Мария Пересильд, Инга Тропа, Артурс Скрастыньш, Лилита Озолиня

Описание: Павел Шелест был правильный мужик. Не любил крутых поворотов, всегда старался поступать как положено. Но ему не повезло. 15 августа 1990 года на раскаленной трассе Слока-Талси в его автобус врезался «Москвич» Виктора Цоя. Кумир миллионов погиб на месте. Павел ничего не знал о Цое, не слушал его песен. Не знал он и того, что после этого рокового столкновения его жизнь больше никогда не будет прежней.



Страна: Россия, Латвия, Литва
Студия: Mistrus Media, ТПО «Рок»
Продолжительность: 01:37:03
Перевод: Русский - iTunes



Информация о файле:
Кодек: AVC
Формат: MKV
Качество: WEB-DLRip-AVC
Видео: MPEG-4 AVC, 1024x428, 24.000 fps, 1753 kb/s
Аудио RU: AC3, 6 ch, 48 kHz, 384 kbps
Субтитры: Русские (форс. вшитые)
Навигация по главам: Да

264 info: frame I:845 Avg QP:16.77 size: 56575
x264 info: frame P:38311 Avg QP:20.42 size: 17259
x264 info: frame B:100814 Avg QP:22.18 size: 5633
x264 info: consecutive B-frames: 3.6% 5.5% 8.2% 58.8% 11.4% 9.0% 1.5% 1.0% 0.1% 0.1% 0.0% 0.3% 0.4%
General
Unique ID : 220892393244848031613919065527789855690 (0xA62E53D4AA41AAD23B3AE6C6DD0CA3CA)
Complete name : D:uTorrentРипы_от_wolf1245_MediaBitTsoy.2020.RUS.WEB-DLRip-AVC_wolf1245_MediaBit.mkv
Format : Matroska
Format version : Version 4
File size : 1.45 GiB
Duration : 1 h 37 min
Overall bit rate : 2 137 kb/s
Movie name : Tsoy.2020.RUS.WEB-DLRip-AVC_wolf1245_MediaBit
Encoded date : UTC 2021-01-30 20:29:47
Writing application : mkvmerge v53.0.0 ('Fool's Gold') 64-bit
Writing library : libebml v1.4.1 + libmatroska v1.6.2
Video
ID : 1
Format : AVC
Format/Info : Advanced Video Codec
Format profile : High@L4.1
Format settings : CABAC / 12 Ref Frames
Format settings, CABAC : Yes
Format settings, Reference frames : 12 frames
Codec ID : V_MPEG4/ISO/AVC
Duration : 1 h 37 min
Bit rate : 1 753 kb/s
Width : 1 024 pixels
Height : 428 pixels
Display aspect ratio : 2.40:1
Frame rate mode : Constant
Frame rate : 24.000 FPS
Color space : YUV
Chroma subsampling : 4:2:0
Bit depth : 8 bits
Scan type : Progressive
Bits/(Pixel*Frame) : 0.167
Stream size : 1.19 GiB (82%)
Title : _wolf1245_MediaBit
Writing library : x264 core 157 r2958 57baac4
Encoding settings : cabac=1 / ref=12 / deblock=1:-3:-3 / analyse=0x3:0x133 / me=umh / subme=11 / psy=1 / psy_rd=1.05:0.05 / mixed_ref=1 / me_range=32 / chroma_me=1 / trellis=2 / 8x8dct=1 / cqm=0 / deadzone=21,11 / fast_pskip=0 / chroma_qp_offset=-3 / threads=10 / lookahead_threads=2 / sliced_threads=0 / nr=0 / decimate=0 / interlaced=0 / bluray_compat=0 / constrained_intra=0 / bframes=12 / b_pyramid=2 / b_adapt=2 / b_bias=0 / direct=3 / weightb=1 / open_gop=0 / weightp=2 / keyint=240 / keyint_min=24 / scenecut=40 / intra_refresh=0 / rc_lookahead=100 / rc=2pass / mbtree=0 / bitrate=1753 / ratetol=1.0 / qcomp=0.60 / qpmin=0 / qpmax=69 / qpstep=4 / cplxblur=20.0 / qblur=0.5 / vbv_maxrate=50000 / vbv_bufsize=62500 / nal_hrd=none / filler=0 / ip_ratio=1.40 / pb_ratio=1.30 / aq=1:0.80
Language : English
Default : Yes
Forced : No
Color range : Limited
Color primaries : BT.709
Transfer characteristics : BT.709
Matrix coefficients : BT.709
Audio
ID : 2
Format : AC-3
Format/Info : Audio Coding 3
Commercial name : Dolby Digital
Codec ID : A_AC3
Duration : 1 h 37 min
Bit rate mode : Constant
Bit rate : 384 kb/s
Channel(s) : 6 channels
Channel layout : L R C LFE Ls Rs
Sampling rate : 48.0 kHz
Frame rate : 31.250 FPS (1536 SPF)
Compression mode : Lossy
Stream size : 267 MiB (18%)
Title : Original | iTunes | RUS
Language : Russian
Service kind : Complete Main
Default : Yes
Forced : No
Menu
00:00:00.000 : :Глава 1
00:03:29.833 : :Глава 2
00:08:27.333 : :Глава 3
00:12:12.499 : :Глава 4
00:17:48.749 : :Глава 5
00:25:58.665 : :Глава 6
00:34:07.623 : :Глава 7
00:43:34.456 : :Глава 8
00:47:58.706 : :Глава 9
00:53:48.706 : :Глава 10
00:59:01.539 : :Глава 11
01:04:56.372 : :Глава 12
01:12:26.622 : :Глава 13
01:18:50.288 : :Глава 14
01:25:05.454 : :Глава 15
Релиз от: & &
piratbit.pw



Скачать Цой через торрент https://i114.fastpic.ru/big/2021/0130/b1/b55a0bc3e08c96e6fd201bc651c90bb1.png Скачать фильм Цой через торрент бесплантно в хорошем качестве Описание: Павел Шелест был правильный мужик. Не любил крутых поворотов, всегда старался поступать как положено. Но ему не повезло. 15 ... 7.8 10 5
Торрент: Зарегистрирован [2021-01-30 20:42] · скачан: 190 раз
Статус: √ проверено
Размер: 1.45 GB
Как cкачать? Как скачать Цой через торрент | UTorrent

28-11-2019 20:33  

Отключить всю рекламу на сайте

    Дорогой пользователь! Огромная просьба, поблагодарите релизера, оцените раздачу и оставьте свои комментарий, если Вы скачали Цой через торрент бесплатно! Внесите свою лепту в развитие PiratBit!
    Комментировать посты могут только пользователи прошедшие не сложную регистрацию
    Показать сообщения:    

    Цой через торрент
    Скачать бесплатно Цой
    Цой скачать торрент
    Цой смотреть онлайн
    Cкачать фильм Цой бесплатно
    Цой скачать торрент в хорошем качестве
    Цой смотреть онлайн бесплатно в хорошем качестве


    Вы не можете начинать темы
    Вы не можете отвечать на сообщения
    Вы не можете редактировать свои сообщения
    Вы не можете удалять свои сообщения
    Вы не можете голосовать в опросах
    Вы не можете прикреплять файлы к сообщениям
    Вы можете скачивать файлы