2 сезон

iTunes

WEBRip

1

2 сезон

iTunes

1 сезон

1 сезон

RePack

30

Новинка

ВАЖНО

ИГРА 18+

pack

RePack

MK11
pack

Легкие деньги

RePack

jed

RePack

fifa19

RePack

RDR2

RePack

NEED FOR SPEED™ PAYBACK

4 сезон

9 сезон

Бесстыжие 9 сезон

Все сериалы

все сериалы на PB.wtf

RePack

FAR CRY 5

Anonymous, доброй ночи, мы не успеваем собрать деньги на оплату серверов за февраль, помогите нам пожалуйста в это трудное время. В качестве благодарности мы отключим Вам всю рекламу на сайте (укажите свой ник в строку Ваше имя)!

×
  
Magnet ссылка

Цой (Алексей Учитель) [2020 г., драма, WEB-DLRip] iTunes piratbit.pw

Цой через торрент piratbit.pw

Раздают: 1 [ 0 KB/s ]
Размер: 714 MB | Добавлен: 1 мес. 6 д. назад | Торрент скачан:33 раза
Скачать  

30-01-2021 17:32 Цой Скачать торрент  

Цой
Год выпуска: 2020
Страна: Россия, Латвия, Литва / Mistrus Media , ТПО «Рок»
Жанр: драма
Продолжительность: 01:37:12
Перевод: Не требуется Русский (iTunes)
Субтитры: русские форсированные- hardsub на латышскую речь

Режиссер: Алексей Учитель

rating

В ролях: Евгений Цыганов, Марьяна Спивак, Паулина Андреева, Илья Дель, Игорь Верник, Надежда Калеганова, Мария Пересильд, Инга Тропа, Артурс Скрастыньш, Лилита Озолиня

Описание: Павел Шелест был правильный мужик. Не любил крутых поворотов, всегда старался поступать как положено. Но ему не повезло. 15 августа 1990 года на раскаленной трассе Слока-Талси в его автобус врезался «Москвич» Виктора Цоя. Кумир миллионов погиб на месте. Павел ничего не знал о Цое, не слушал его песен. Не знал он и того, что после этого рокового столкновения его жизнь больше никогда не будет прежней.

Качество: WEB-DLRip
Формат: AVI
Видео кодек: DivX
Аудио кодек: MP3
Видео: 640x272 (2.35:1), 24 fps, DivX Codec 5.x or 6.x ~885 kbps avg, 0.21 bit/pixel
Аудио: 48 kHz, MPEG Layer 3, 2 ch, ~128.00 kbps avg




Общее
Полное имя : G:\ФИЛЬМЫ\Цой.2020.WEB-DLRip.avi
Формат : AVI
Формат/Информация : Audio Video Interleave
Размер файла : 714 Мбайт
Продолжительность : 1 ч. 37 м.
Общий поток : 1 027 Кбит/сек
Название фильма : Цой.2020.WEB-DLRip.avi
Программа кодирования : Lavf58.12.100

Видео
Идентификатор : 0
Формат : MPEG-4 Visual
Профиль формата : Advanced Simple@L5
Настройки формата : BVOP
Параметр BVOP формата : Да
Параметр QPel формата : Нет
Параметр GMC формата : Без точки перехода
Параметр матрицы формата : Default (MPEG)
Идентификатор кодека : DX50
Идентификатор кодека/Подсказка : DivX 5
Продолжительность : 1 ч. 37 м.
Битрейт : 886 Кбит/сек
Ширина : 640 пикселей
Высота : 272 пикселя
Соотношение сторон : 2,35:1
Частота кадров : 24,000 кадра/сек
Цветовое пространство : YUV
Субдискретизация насыщенности : 4:2:0
Битовая глубина : 8 бит
Тип развёртки : Прогрессивная
Метод сжатия : С потерями
Бит/(Пиксели*Кадры) : 0.212
Размер потока : 616 Мбайт (86%)
Библиотека кодирования : XviD 67

Аудио
Идентификатор : 1
Формат : MPEG Audio
Версия формата : Version 1
Профиль формата : Layer 3
Настройки формата : Joint stereo
Идентификатор кодека : 55
Идентификатор кодека/Подсказка : MP3
Продолжительность : 1 ч. 37 м.
Вид битрейта : Постоянный
Битрейт : 128 Кбит/сек
Каналы : 2 канала
Частота : 48,0 КГц
Метод сжатия : С потерями
Размер потока : 89,0 Мбайт (12%)
Выравнивание : Соединение по промежуткам
Продолжительность промежутка : 24 мс. (0,58 видеокадр)

piratbit.pw



Скачать Цой через торрент https://pic1.kartinco.top/new/img/2021-01/30/2pqe7e6gwtz974n0n0bstdf0g.jpg Скачать фильм Цой через торрент бесплантно в хорошем качестве Описание: Павел Шелест был правильный мужик. Не любил крутых поворотов, всегда старался поступать как положено. Но ему не повезло. 15 ... 6 10 5
Торрент: Зарегистрирован [2021-01-30 17:38] · скачан: 33 раз
Статус: √ проверено
Размер: 714 MB
Как cкачать? Как скачать Цой через торрент | UTorrent

% Раздел Тема Автор DL S | L
Наши новые фильмы 2020 - 2021 [ 1.45 GB ] Цой [2020 WEB-DLRip-AVC] [RUS] от MediaBit Lithuania Скачать
6 | 0
Наши фильмы (HD, WEB-DL 720p, 1080p) [ 3.41 GB ] Цой [2020 биография WEB-DL 1080p] bober100 Скачать
5 | 0
Наши новые фильмы 2020 - 2021 [ 1.46 GB ] Цой [2020 биография WEB-DLRip] bober100 Скачать
3 | 0

28-11-2019 20:33  

Отключить всю рекламу на сайте

    Дорогой пользователь! Огромная просьба, поблагодарите релизера, оцените раздачу и оставьте свои комментарий, если Вы скачали Цой через торрент бесплатно! Внесите свою лепту в развитие PiratBit!
    Комментировать посты могут только пользователи прошедшие не сложную регистрацию
    Показать сообщения:    

    Цой через торрент
    Скачать бесплатно Цой
    Цой скачать торрент
    Цой смотреть онлайн
    Cкачать фильм Цой бесплатно
    Цой скачать торрент в хорошем качестве
    Цой смотреть онлайн бесплатно в хорошем качестве


    Вы не можете начинать темы
    Вы не можете отвечать на сообщения
    Вы не можете редактировать свои сообщения
    Вы не можете удалять свои сообщения
    Вы не можете голосовать в опросах
    Вы не можете прикреплять файлы к сообщениям
    Вы можете скачивать файлы