1 сезон

1 сезон

iTunes

1

КиноПоиск HD

Кинопоиск HD

iTunes

13

1 сезон

RePack

30

Новинка

ВАЖНО

ИГРА 18+

pack

RePack

MK11
pack

Легкие деньги

RePack

jed

RePack

fifa19

RePack

RDR2

RePack

NEED FOR SPEED™ PAYBACK

4 сезон

9 сезон

Бесстыжие 9 сезон

Все сериалы

все сериалы на PB.wtf

RePack

FAR CRY 5
  
Magnet ссылка

Властелин колец: Две сорванные башни / The Lord of the Rings: Two Towers (Питер Джексон) [2002, Фэнтези, приключения, пародия, BDRip (HEVC)1080p] [Theatrical Cut] [AVO] (Goblin) piratbit.pw

Властелин колец: Две сорванные башни через торрент piratbit.pw

Раздают: 4 [ 0 KB/s ]
Размер: 6.13 GB | Добавлен: 2 мес. 25 д. назад | Торрент скачан:50 раз
Скачать  

27-01-2021 14:03 Властелин колец: Две сорванные башни Скачать торрент  

The Lord of the Rings: Two Towers /
Властелин колец: Две сорванные башни



Год выпуска: 2002
Страна: США , Новая Зеландия
Жанр: Фэнтези, приключения, пародия
Продолжительность: 02:59:25
Перевод #1: Авторский (одноголосый закадровый) - Дмитрий Пучков (Гоблин) "Божья Искра" beta
Перевод #2: Авторский (одноголосый закадровый) - Дмитрий Пучков (Гоблин) "Божья Искра" final

Режиссер: Питер Джексон

В ролях: Элайджа Вуд, Йен МакКеллен, Вигго Мортенсен, Шон Эстин, Билли Бойд, Лив Тайлер, Доминик Монахэн, Орландо Блум, Джон Риз-Дэйвис, Иэн Холм, Кейт Бланшетт, Хьюго Уивинг, Бернард Хилл, Миранда Отто, Карл Урбан, Дэвид Уэнэм, Джон Ноубл, Энди Серкис, Ноэл Эпплби, Александра Эстин, Джон Бах, Шон Бин, Мартон Чокаш, Брюс Хопкинс.

Описание:
Вторая часть мега-блокбастера "Братва и кольцо"!
Бывший мордовский интеллигент Голый ведёт на свою малую родину носителя зловредного кольца Фёдора Сумкина и его друга Сеню Ганджубаса.
Агроном, Гиви и Логоваз ведут преследование банды педофилов из первой серии.
Сарумян, сын Вассермана и шестёрка Саурона, осуществляет акт агрессии против Рохляндии. Перед лицом нависшей опасности сильно пьющий атаман Борис принимает решение всем колхозом спрятаться на даче.
На помощь обороняющимся дачникам подтягиваются Саша Белый со своей бригадой и заградотряд эльфийских стрелков "Белые колготки"...

rating

Качество видео: BDRip (HEVC) 1080p [Theatrical Cut]
Формат: MKV
Видео кодек: x.265
Аудио кодек: AC3
Видео: HEVC/H.265, 1920x800, 23,976 fps, ~4409 Kbps, 10 bit
Аудио #1: 48 kHz, AC3, 2 ch, ~192.00 kbps avg |Дмитрий Пучков (Гоблин) "Божья Искра" beta version|
Аудио #2: 48 kHz, AC3, 2 ch, ~192.00 kbps avg |Дмитрий Пучков (Гоблин) "Божья Искра" final version|
скриншот   скриншот   скриншот   скриншот   скриншот  
General
Unique ID : 252656141782968689254957254606711227282 (0xBE13CD8B7708A672A73A55C532790392)
Complete name : F:\фото корпус\The Lord of The Rings_The Two Towers.2002.BDRip (HEVC)1080p.[Theatrical Cut] [AVO] (Goblin).xz.mkv
Format : Matroska
Format version : Version 4 / Version 2
File size : 6.13 GiB
Duration : 2h 59mn
Overall bit rate : 4 891 Kbps
Movie name : The Lord of The Rings_The Two Towers.2002.BDRip (HEVC)1080p.[Theatrical Cut] [AVO] (Goblin).xz
Encoded date : UTC 2021-01-27 13:39:54
Writing application : mkvmerge v6.1.0 ('Old Devil') built on Mar 2 2013 14:32:37
Writing library : libebml v1.3.0 + libmatroska v1.4.0
Attachements : cover.jpg

Video
ID : 1
Format : HEVC
Format/Info : High Efficiency Video Coding
Format profile : Main 10@L4@Main
Codec ID : V_MPEGH/ISO/HEVC
Duration : 2h 59mn
Bit rate : 4 409 Kbps
Width : 1 920 pixels
Height : 800 pixels
Display aspect ratio : 2.40:1
Frame rate mode : Constant
Frame rate : 23.976 fps
Color space : YUV
Chroma subsampling : 4:2:0
Bit depth : 10 bits
Bits/(Pixel*Frame) : 0.120
Stream size : 5.53 GiB (90%)
Title : The Lord of The Rings_The Two Towers.2002.BDRip (HEVC)1080p.[Theatrical Cut] [AVO] (Goblin).xz
Writing library : x265 3.2+9-971180b100f8:[Windows][GCC 9.2.0][64 bit] 10bit
Encoding settings : cpuid=1111039 / frame-threads=3 / numa-pools=12 / wpp / no-pmode / no-pme / no-psnr / ssim / log-level=2 / input-csp=1 / input-res=1920x800 / interlace=0 / total-frames=258120 / level-idc=0 / high-tier=1 / uhd-bd=0 / ref=4 / no-allow-non-conformance / no-repeat-headers / annexb / no-aud / no-hrd / info / hash=0 / no-temporal-layers / open-gop / min-keyint=23 / keyint=250 / gop-lookahead=0 / bframes=8 / b-adapt=2 / b-pyramid / bframe-bias=40 / rc-lookahead=80 / lookahead-slices=4 / scenecut=40 / radl=0 / no-splice / no-intra-refresh / ctu=64 / min-cu-size=8 / rect / no-amp / max-tu-size=32 / tu-inter-depth=1 / tu-intra-depth=1 / limit-tu=0 / rdoq-level=2 / dynamic-rd=0.00 / ssim-rd / signhide / no-tskip / nr-intra=0 / nr-inter=0 / constrained-intra / strong-intra-smoothing / max-merge=5 / limit-refs=3 / limit-modes / me=3 / subme=7 / merange=57 / temporal-mvp / no-frame-dup / no-hme / weightp / no-weightb / no-analyze-src-pics / deblock=-3:-3 / sao / no-sao-non-deblock / rd=4 / selective-sao=4 / early-skip / rskip / no-fast-intra / no-tskip-fast / no-cu-lossless / no-b-intra / no-splitrd-skip / rdpenalty=0 / psy-rd=3.50 / psy-rdoq=2.50 / no-rd-refine / no-lossless / cbqpoffs=0 / crqpoffs=0 / rc=crf / crf=22.0 / qcomp=0.60 / qpstep=4 / stats-write=0 / stats-read=0 / ipratio=1.40 / pbratio=1.30 / aq-mode=3 / aq-strength=0.40 / cutree / zone-count=0 / no-strict-cbr / qg-size=32 / no-rc-grain / qpmax=69 / qpmin=0 / no-const-vbv / sar=0 / overscan=0 / videoformat=5 / range=0 / colorprim=2 / transfer=2 / colormatrix=2 / chromaloc=0 / display-window=0 / cll=0,0 / min-luma=0 / max-luma=1023 / log2-max-poc-lsb=8 / vui-timing-info / vui-hrd-info / slices=1 / no-opt-qp-pps / no-opt-ref-list-length-pps / no-multi-pass-opt-rps / scenecut-bias=0.05 / no-opt-cu-delta-qp / no-aq-motion / no-hdr / no-hdr-opt / no-dhdr10-opt / no-idr-recovery-sei / analysis-reuse-level=5 / scale-factor=0 / refine-intra=0 / refine-inter=0 / refine-mv=1 / refine-ctu-distortion=0 / no-limit-sao / ctu-info=0 / no-lowpass-dct / refine-analysis-type=0 / copy-pic=1 / max-ausize-factor=1.0 / no-dynamic-refine / no-single-sei / no-hevc-aq / no-svt / no-field / qp-adaptation-range=1.00
Default : Yes
Forced : No

Audio #1
ID : 2
Format : AC-3
Format/Info : Audio Coding 3
Mode extension : CM (complete main)
Format settings, Endianness : Big
Codec ID : A_AC3
Duration : 2h 59mn
Bit rate mode : Constant
Bit rate : 192 Kbps
Channel(s) : 2 channels
Channel positions : Front: L R
Sampling rate : 48.0 KHz
Compression mode : Lossy
Stream size : 246 MiB (4%)
Title : Goblin_beta version
Language : Russian
Default : Yes
Forced : No

Audio #2
ID : 3
Format : AC-3
Format/Info : Audio Coding 3
Mode extension : CM (complete main)
Format settings, Endianness : Big
Codec ID : A_AC3
Duration : 2h 59mn
Bit rate mode : Constant
Bit rate : 192 Kbps
Channel(s) : 2 channels
Channel positions : Front: L R
Sampling rate : 48.0 KHz
Compression mode : Lossy
Stream size : 246 MiB (4%)
Title : Goblin_final version
Language : Russian
Default : No
Forced : No

Menu
00:00:00.000 : en:The Foundations of Stone
00:04:08.748 : en:The Taming of Smeagol
00:11:32.150 : en:The Uruk-Hai
00:12:17.695 : en:The Three Hunters
00:14:27.200 : en:The Burning of the Westfold
00:17:30.549 : en:The Banishment of Omer
00:20:18.592 : en:On the Trail of the Uruk-Hai
00:21:12.730 : en:Night Camp at Fangorn
00:24:11.075 : en:The Riders of Rohan
00:28:19.031 : en:Traces of Merry and Pippin
00:30:50.766 : en:Treebeard
00:34:19.683 : en:The Passage of the Marshes
00:41:18.601 : en:The White Rider
00:46:55.271 : en:Fangorn Forest
00:47:35.436 : en:The Black Gate Is Closed
00:52:53.128 : en:The King of the Golden Hall
01:04:21.649 : en:Simbelmyn on the Burial Mounds
01:06:14.429 : en:The King's Decision
01:09:25.203 : en:A Daughter of Kings
01:10:51.247 : en:Exodus From Edoras
01:11:55.853 : en:The Forests of Ithilien
01:13:38.497 : en:Gollum and Smeagol
01:16:08.981 : en:Of Herbs and Stewed Rabbit
01:20:35.998 : en:Dwarf Women
01:21:32.387 : en:The Evenstar
01:26:01.406 : en:The Wolves of Isengard
01:32:39.304 : en:Helm's Deep
01:35:05.909 : en:Isengard Unleashed
01:37:42.398 : en:The Grace of the Valar
01:39:22.039 : en:Arwen's Fate
01:43:02.718 : en:The Story Foreseen From Lorien
01:45:28.697 : en:The Window on the West
01:48:24.415 : en:The Forbidden Pool
01:55:44.813 : en:Aragorn's Return
02:01:18.062 : en:Entmoot
02:02:37.934 : en:The Glittering Caves
02:04:36.177 : en:"Where Is the Horse and the Rider?"
02:06:20.907 : en:The Host of the Eldar
02:09:53.327 : en:The Battle of the Hornburg
02:16:09.286 : en:Old Entish
02:17:48.635 : en:The Breach of the Deeping Wall
02:21:13.465 : en:The Entmoot Decides
02:22:58.612 : en:Retreat of the Hornburg
02:28:55.552 : en:Master Peregrin's Plan
02:30:20.345 : en:Osgiliath
02:30:55.088 : en:The Last March of the Ents
02:33:11.307 : en:The Nazgul Attack
02:35:43.292 : en:Forth Eorlingas
02:40:21.779 : en:The Flooding of Isengard
02:42:49.969 : en:The Tales That Really Mattered...
02:47:36.255 : en:"the Battle for Middle-Earth Is About to Begin"
02:49:15.937 : en:Gollum's Plan
02:51:42.459 : en:End Credits
piratbit.pw



Скачать Властелин колец: Две сорванные башни через торрент http://i74.fastpic.ru/big/2016/0110/b1/8db1bd3cf3ea8536ab68bad72033e4b1.jpg Скачать фильм Властелин колец: Две сорванные башни через торрент бесплантно в хорошем качестве Описание:Вторая часть мега-блокбастера "Братва и кольцо"!Бывший мордовский интеллигент Голый ведёт на свою малую родину носителя ... 10 10 2
Торрент: Зарегистрирован [2021-01-28 13:31] · скачан: 50 раз
Статус: √ проверено
Размер: 6.13 GB
Как cкачать? Как скачать Властелин колец: Две сорванные башни через торрент | UTorrent



Последний раз редактировалось: killermax2013 (2021-01-28 13:31), всего редактировалось 1 раз

28-11-2019 20:33  

Отключить всю рекламу на сайте

27-01-2021 14:14 Властелин колец: Две сорванные башни Скачать торрент  

Цитата:

Отличие версий переводов в музыкальных вставках и местами диалогами.В бета версии в начале звучит песня Высоцкого, в финальной версии зарубежный трек

piratbit.pw



    Дорогой пользователь! Огромная просьба, поблагодарите релизера, оцените раздачу и оставьте свои комментарий, если Вы скачали Властелин колец: Две сорванные башни через торрент бесплатно! Внесите свою лепту в развитие PiratBit!
    Комментировать посты могут только пользователи прошедшие не сложную регистрацию
    Показать сообщения:    

    Властелин колец: Две сорванные башни через торрент
    Скачать бесплатно Властелин колец: Две сорванные башни
    Властелин колец: Две сорванные башни скачать торрент
    Властелин колец: Две сорванные башни смотреть онлайн
    Cкачать фильм Властелин колец: Две сорванные башни бесплатно
    Властелин колец: Две сорванные башни скачать торрент в хорошем качестве
    Властелин колец: Две сорванные башни смотреть онлайн бесплатно в хорошем качестве


    Вы не можете начинать темы
    Вы не можете отвечать на сообщения
    Вы не можете редактировать свои сообщения
    Вы не можете удалять свои сообщения
    Вы не можете голосовать в опросах
    Вы не можете прикреплять файлы к сообщениям
    Вы можете скачивать файлы