1 сезон

1 сезон

iTunes

1

КиноПоиск HD

Кинопоиск HD

iTunes

13

1 сезон

RePack

30

Новинка

ВАЖНО

ИГРА 18+

pack

RePack

MK11
pack

Легкие деньги

RePack

jed

RePack

fifa19

RePack

RDR2

RePack

NEED FOR SPEED™ PAYBACK

4 сезон

9 сезон

Бесстыжие 9 сезон

Все сериалы

все сериалы на PB.wtf

RePack

FAR CRY 5
  
Magnet ссылка

Властелин колец: Братва и кольцо / The Lord of the Rings: The Fellowship of the Ring (Питер Джексон) [2001, Фэнтези, приключения, пародия, BDRip (HEVC)1080p] [Theatrical Cut] [AVO] (Goblin) piratbit.pw

Властелин колец: Братва и кольцо через торрент piratbit.pw

Раздают: 2 [ 561 KB/s ]
Размер: 4.05 GB | Добавлен: 2 мес. 26 д. назад | Торрент скачан:80 раз
Скачать  

26-01-2021 19:58 Властелин колец: Братва и кольцо Скачать торрент  

The Lord of the Rings: The Fellowship of the Ring /
Властелин колец: Братва и кольцо



Год выпуска: 2001
Страна: США , Новая Зеландия
Жанр: Фэнтези, приключения, пародия
Продолжительность: 02:58:12
Перевод #1: Авторский (одноголосый закадровый) - Дмитрий Пучков (Гоблин) "Божья Искра" v.1.0
Перевод #2: Авторский (одноголосый закадровый) - Дмитрий Пучков (Гоблин) "Божья Искра" v.1.1

Режиссер: Питер Джексон

В ролях: Элайджа Вуд, Орландо Блум, Вигго Мортенсен, Лив Тайлер, Шон Эстин, Шон Бин, Кейт Бланшетт, Билли Бойд, Ян Хольм, Кристофер Ли, Ян МакКеллен, Доминик Монагэн, Джон Рис-Дэвис, Энди Серкис, Хьюго Уивинг

Описание:
В руки карапуза Фёдора Сумкина попадает мегакольцо.
Злобный мордовский упырь, по кличке Саурон, насылает на Фёдора отряд конных эсэсовцев. Но верные друзья Фёдора — майор милиции Пендальф, сельский паренёк Сеня Ганджубас, бомж Агроном, гном Гиви и эльф Логовас — жёстко настроены обрубить волосатые щупальца мордовской хунте и отнести мегакольцо в мегадомну, где предполагают безо всякой жалости расплавить вредный предмет.© Goblin

rating

Качество видео: BDRip (HEVC) 1080p [Theatrical Cut]
Формат: MKV
Видео кодек: x.265
Аудио кодек: AC3
Видео: HEVC/H.265, 1920x800, 23,976 fps, ~2902 Kbps, 10 bit
Аудио #1: 48 kHz, AC3, 2 ch, ~192.00 kbps avg |Дмитрий Пучков (Гоблин) "Божья Искра" v.1.0 *с музыкальными вставками*|
Аудио #2: 48 kHz, AC3, 2 ch, ~192.00 kbps avg |Дмитрий Пучков (Гоблин) "Божья Искра" v.1.1|
скриншот   скриншот   скриншот   скриншот   скриншот   скриншот   скриншот   скриншот  
General
Unique ID : 188859482284266170739226846090608259383 (0x8E150362782AF82DBF6F29287F503137)
Complete name : G:\ФИЛЬМЫ\The Lord of the Rings_The Fellowship of the Ring.2002.BDRip (HEVC)1080p.[Theatrical Cut] [AVO] (Goblin).xz.mkv
Format : Matroska
Format version : Version 4 / Version 2
File size : 4.05 GiB
Duration : 2h 58mn
Overall bit rate : 3 250 Kbps
Movie name : The Lord of the Rings_The Fellowship of the Ring.2002.BDRip (HEVC)1080p.[Theatrical Cut] [AVO] (Goblin).xz
Encoded date : UTC 2021-01-26 18:57:24
Writing application : mkvmerge v6.1.0 ('Old Devil') built on Mar 2 2013 14:32:37
Writing library : libebml v1.3.0 + libmatroska v1.4.0
Attachements : cover.jpg

Video
ID : 1
Format : HEVC
Format/Info : High Efficiency Video Coding
Format profile : Main 10@L4@Main
Codec ID : V_MPEGH/ISO/HEVC
Duration : 2h 58mn
Bit rate : 2 902 Kbps
Width : 1 920 pixels
Height : 800 pixels
Display aspect ratio : 2.40:1
Frame rate mode : Constant
Frame rate : 23.976 fps
Color space : YUV
Chroma subsampling : 4:2:0
Bit depth : 10 bits
Bits/(Pixel*Frame) : 0.076
Stream size : 3.49 GiB (86%)
Title : The Lord of the Rings_The Fellowship of the Ring.2002.BDRip (HEVC)1080p.[Theatrical Cut] [AVO] (Goblin).xz
Writing library : x265 3.2+9-971180b100f8:[Windows][GCC 9.2.0][64 bit] 10bit
Encoding settings : cpuid=1111039 / frame-threads=3 / numa-pools=12 / wpp / no-pmode / no-pme / no-psnr / ssim / log-level=2 / input-csp=1 / input-res=1920x800 / interlace=0 / total-frames=256641 / level-idc=0 / high-tier=1 / uhd-bd=0 / ref=4 / no-allow-non-conformance / no-repeat-headers / annexb / no-aud / no-hrd / info / hash=0 / no-temporal-layers / open-gop / min-keyint=23 / keyint=250 / gop-lookahead=0 / bframes=8 / b-adapt=2 / b-pyramid / bframe-bias=20 / rc-lookahead=80 / lookahead-slices=4 / scenecut=40 / radl=0 / no-splice / no-intra-refresh / ctu=64 / min-cu-size=8 / rect / no-amp / max-tu-size=32 / tu-inter-depth=1 / tu-intra-depth=1 / limit-tu=0 / rdoq-level=2 / dynamic-rd=0.00 / ssim-rd / signhide / no-tskip / nr-intra=0 / nr-inter=0 / constrained-intra / strong-intra-smoothing / max-merge=5 / limit-refs=3 / limit-modes / me=3 / subme=5 / merange=57 / temporal-mvp / no-frame-dup / no-hme / weightp / no-weightb / no-analyze-src-pics / deblock=-2:-2 / sao / no-sao-non-deblock / rd=4 / selective-sao=4 / early-skip / rskip / no-fast-intra / no-tskip-fast / no-cu-lossless / no-b-intra / no-splitrd-skip / rdpenalty=0 / psy-rd=2.50 / psy-rdoq=1.50 / no-rd-refine / no-lossless / cbqpoffs=0 / crqpoffs=0 / rc=crf / crf=21.5 / qcomp=0.60 / qpstep=4 / stats-write=0 / stats-read=0 / ipratio=1.40 / pbratio=1.30 / aq-mode=3 / aq-strength=0.40 / cutree / zone-count=0 / no-strict-cbr / qg-size=32 / no-rc-grain / qpmax=69 / qpmin=0 / no-const-vbv / sar=0 / overscan=0 / videoformat=5 / range=0 / colorprim=1 / transfer=1 / colormatrix=1 / chromaloc=0 / display-window=0 / cll=0,0 / min-luma=0 / max-luma=1023 / log2-max-poc-lsb=8 / vui-timing-info / vui-hrd-info / slices=1 / no-opt-qp-pps / no-opt-ref-list-length-pps / no-multi-pass-opt-rps / scenecut-bias=0.05 / no-opt-cu-delta-qp / no-aq-motion / no-hdr / no-hdr-opt / no-dhdr10-opt / no-idr-recovery-sei / analysis-reuse-level=5 / scale-factor=0 / refine-intra=0 / refine-inter=0 / refine-mv=1 / refine-ctu-distortion=0 / no-limit-sao / ctu-info=0 / no-lowpass-dct / refine-analysis-type=0 / copy-pic=1 / max-ausize-factor=1.0 / no-dynamic-refine / no-single-sei / no-hevc-aq / no-svt / no-field / qp-adaptation-range=1.00
Default : Yes
Forced : No
Color range : Limited
Color primaries : BT.709
Transfer characteristics : BT.709
Matrix coefficients : BT.709

Audio #1
ID : 2
Format : AC-3
Format/Info : Audio Coding 3
Mode extension : CM (complete main)
Format settings, Endianness : Big
Codec ID : A_AC3
Duration : 2h 58mn
Bit rate mode : Constant
Bit rate : 192 Kbps
Channel(s) : 2 channels
Channel positions : Front: L R
Sampling rate : 48.0 KHz
Compression mode : Lossy
Delay relative to video : 1s 700ms
Stream size : 245 MiB (6%)
Title : Goblin_v.1.0 *s pesnjami*
Language : Russian
Default : Yes
Forced : No

Audio #2
ID : 3
Format : AC-3
Format/Info : Audio Coding 3
Mode extension : CM (complete main)
Format settings, Endianness : Big
Codec ID : A_AC3
Duration : 2h 58mn
Bit rate mode : Constant
Bit rate : 192 Kbps
Channel(s) : 2 channels
Channel positions : Front: L R
Sampling rate : 48.0 KHz
Compression mode : Lossy
Delay relative to video : 1s 700ms
Stream size : 245 MiB (6%)
Title : Goblin_v.1.1
Language : Russian
Default : No
Forced : No

Menu
00:00:00.000 : en:Prologue: One Ring to Rule Them All...
00:07:15.435 : en:The Shire
00:11:36.946 : en:Very Old Friends
00:15:41.523 : en:A Long-Expected Party
00:20:05.162 : en:Farewell Dear Bilbo
00:24:29.926 : en:Keep it Secret, Keep it Safe
00:26:43.226 : en:The Account of Isildur
00:29:24.345 : en:The Shadow of the Past
00:38:31.017 : en:Saruman the White
00:43:08.127 : en:A Shortcut to Mushrooms
00:46:59.149 : en:Bucklebury Ferry
00:49:16.787 : en:At the Sign of the Prancing Pony
00:55:10.598 : en:The Nazgl
00:58:35.386 : en:The Spoiling of Isengard
01:00:17.739 : en:A Knife in the Dark
01:04:57.184 : en:The Caverns of Isengard
01:07:28.419 : en:Fight to the Ford
01:13:41.375 : en:Rivendell
01:15:42.246 : en:Many Meetings
01:19:11.329 : en:The Face of the Ring
01:22:44.417 : en:The Sword That Was Broken
01:24:55.840 : en:The Evenstar
01:26:34.731 : en:The Council of Elrond
01:33:32.356 : en:Bilbo's Gifts
01:35:25.469 : en:The Ring Goes South
01:38:24.773 : en:The Pass of Caradhras
01:43:06.305 : en:Moria
01:47:53.467 : en:A Journey in the Dark
01:52:49.679 : en:Balin's Tomb
02:01:46.007 : en:The Bridge of Khazad-Dm
02:11:27.462 : en:Lochlrien
02:17:53.807 : en:The Mirror of Galadriel
02:23:22.468 : en:The Fighting Uruk-Hai
02:25:02.694 : en:Farewell to Lrien
02:25:55.413 : en:The Great River
02:28:39.994 : en:Parth Galen
02:35:10.134 : en:The Breaking of the Fellowship
02:41:49.950 : en:The Departure of Boromir
02:44:24.646 : en:The Road Goes Ever On...
02:50:42.232 : en:Credits
piratbit.pw



Скачать Властелин колец: Братва и кольцо через торрент http://i65.fastpic.ru/big/2016/0107/68/a988b7a9a0a14d89f759d8375dbc6168.jpg Скачать фильм Властелин колец: Братва и кольцо через торрент бесплантно в хорошем качестве Описание:В руки карапуза Фёдора Сумкина попадает мегакольцо.Злобный мордовский упырь, по кличке Саурон, насылает на Фёдора отряд конных ... 10 10 5
Торрент: Зарегистрирован [2021-01-27 10:34] · скачан: 80 раз
Статус: √ проверено
Размер: 4.05 GB
Как cкачать? Как скачать Властелин колец: Братва и кольцо через торрент | UTorrent



Последний раз редактировалось: killermax2013 (2021-01-30 11:09), всего редактировалось 2 раз(а)

28-11-2019 20:33  

Отключить всю рекламу на сайте

27-01-2021 00:23 Властелин колец: Братва и кольцо Скачать торрент  

А в чём разница между дорожкой 1.0 и 1.1 ?piratbit.pw
Kkillermax2013 писал(а):

v.1.0 *с музыкальными вставками*



27-01-2021 12:36 Властелин колец: Братва и кольцо Скачать торрент  

а смысл делать дорожку без музыкальных вставок, если в них весь прикол и был)piratbit.pw



27-01-2021 12:51 Властелин колец: Братва и кольцо Скачать торрент  

masharow писал(а):

а смысл делать дорожку без музыкальных вставок, если в них весь прикол и был)

когда первый раз смотрел и первое появление Фёдора Сумкина сопровождалось песней ТаТу "Мальчик-Гей" - я стёк под стол)))))
ИМХО - смотреть только в v. 1.0!!!piratbit.pw



    Дорогой пользователь! Огромная просьба, поблагодарите релизера, оцените раздачу и оставьте свои комментарий, если Вы скачали Властелин колец: Братва и кольцо через торрент бесплатно! Внесите свою лепту в развитие PiratBit!
    Комментировать посты могут только пользователи прошедшие не сложную регистрацию
    Показать сообщения:    

    Властелин колец: Братва и кольцо через торрент
    Скачать бесплатно Властелин колец: Братва и кольцо
    Властелин колец: Братва и кольцо скачать торрент
    Властелин колец: Братва и кольцо смотреть онлайн
    Cкачать фильм Властелин колец: Братва и кольцо бесплатно
    Властелин колец: Братва и кольцо скачать торрент в хорошем качестве
    Властелин колец: Братва и кольцо смотреть онлайн бесплатно в хорошем качестве


    Вы не можете начинать темы
    Вы не можете отвечать на сообщения
    Вы не можете редактировать свои сообщения
    Вы не можете удалять свои сообщения
    Вы не можете голосовать в опросах
    Вы не можете прикреплять файлы к сообщениям
    Вы можете скачивать файлы